The Rolling Stones - Exile On Main Street (1972/2020) [Official Digital Download]

Posted By: pyatak
The Rolling Stones - Exile On Main Street (1972/2020) [Official Digital Download]

The Rolling Stones - Exile On Main Street (1972/2020) [Official Digital Download]
FLAC (tracks) 24-bit/44.1 kHz | Front Cover | Time - 80:19 minutes | 980 MB
Rock | Label: Polydor Records, Official Digital Download

The Rolling Stones are an English rock band formed in London in 1962. The first stable line-up consisted of bandleader Brian Jones (guitar, harmonica, keyboards), Mick Jagger (lead vocals, harmonica), Keith Richards (guitar, vocals), Bill Wyman (bass guitar), Charlie Watts (drums), and Ian Stewart (piano). Stewart was removed from the official line-up in 1963 but continued to work with the band as a contracted musician until his death in 1985. The band's primary songwriters, Jagger–Richards, assumed leadership after Andrew Loog Oldham became the group's manager. Jones left the band less than a month before his death in 1969, having already been replaced by Mick Taylor. Taylor left in 1974 and was replaced in 1975 by Ronnie Wood who has since remained. Since Wyman's departure in 1993, Darryl Jones has served as touring bassist. The Stones have not had an official keyboardist since 1963, but have employed several musicians in that role, including Jack Nitzsche (1965–1971), Nicky Hopkins (1967–1982), Billy Preston (1971–1981), Ian McLagan (1978–1981), and Chuck Leavell (1982–present).

The Rolling Stones were at the forefront of the British Invasion of bands that became popular in the United States in 1964 and were identified with the youthful and rebellious counterculture of the 1960s. Rooted in blues and early rock and roll, the band started out playing covers but found more success with their own material; songs such as "(I Can't Get No) Satisfaction" and "Paint It Black" became international hits, and Aftermath (1966) – their first entirely original album – has been considered the most important of the band's formative records.[1] After a short period of experimentation with psychedelic rock in the mid-1960s, the group returned to its "bluesy" roots with Beggars Banquet (1968), Let It Bleed (1969), Sticky Fingers (1971), and Exile on Main St. (1972). It was during this period they were first introduced on stage as "The Greatest Rock and Roll Band in the World".

TRACKLIST

1. The Rolling Stones - Rocks Off (2009 Mix)
2. The Rolling Stones - Rip This Joint (2009 Mix)
3. The Rolling Stones - Shake Your Hips (2009 Mix)
4. The Rolling Stones - Casino Boogie (2009 Mix)
5. The Rolling Stones - Tumbling Dice (2009 Mix)
6. The Rolling Stones - Sweet Virginia (2009 Mix)
7. The Rolling Stones - Torn And Frayed (2009 Mix)
8. The Rolling Stones - Sweet Black Angel (2009 Mix)
9. The Rolling Stones - Loving Cup (2009 Mix)
10. The Rolling Stones - Happy (2009 Mix)
11. The Rolling Stones - Turd On The Run (2009 Mix)
12. The Rolling Stones - Pass The Wine (Sophia Loren)
13. The Rolling Stones - Plundered My Soul
14. The Rolling Stones - I'm Not Signifying
15. The Rolling Stones - Following The River
16. The Rolling Stones - Dancing In The Light
17. The Rolling Stones - So Divine (Aladdin Story)
18. The Rolling Stones - Loving Cup (Alternate Take)
19. The Rolling Stones - Soul Survivor (Alternate Take)
20. The Rolling Stones - Good Time Women
21. The Rolling Stones - Title 5

foobar2000 1.3.16 / Dynamic Range Meter 1.1.1
log date: 2020-06-26 02:59:56

––––––––––––––––––––––––––––––––––––––––
Analyzed: The Rolling Stones / Exile On Main Street (Deluxe Edition)
––––––––––––––––––––––––––––––––––––––––

DR Peak RMS Duration Track
––––––––––––––––––––––––––––––––––––––––
DR7 -0.60 dB -8.79 dB 4:33 01-Rocks Off (2009 Mix)
DR7 -0.60 dB -8.24 dB 2:23 02-Rip This Joint (2009 Mix)
DR10 -0.60 dB -11.98 dB 2:59 03-Shake Your Hips (2009 Mix)
DR8 -0.60 dB -10.72 dB 3:35 04-Casino Boogie (2009 Mix)
DR6 -0.80 dB -8.57 dB 3:47 05-Tumbling Dice (2009 Mix)
DR6 -0.60 dB -9.38 dB 4:26 06-Sweet Virginia (2009 Mix)
DR6 -0.50 dB -8.05 dB 4:18 07-Torn And Frayed (2009 Mix)
DR9 -0.60 dB -11.11 dB 2:58 08-Sweet Black Angel (2009 Mix)
DR7 -0.60 dB -10.33 dB 4:26 09-Loving Cup (2009 Mix)
DR6 -0.60 dB -8.03 dB 3:05 10-Happy (2009 Mix)
DR8 -0.50 dB -9.22 dB 2:38 11-Turd On The Run (2009 Mix)
DR8 -0.51 dB -9.68 dB 4:54 12-Pass The Wine (Sophia Loren)
DR7 -0.51 dB -8.82 dB 3:59 13-Plundered My Soul
DR8 -0.51 dB -10.81 dB 3:57 14-I'm Not Signifying
DR6 -0.51 dB -9.84 dB 4:52 15-Following The River
DR7 -0.51 dB -8.49 dB 4:22 16-Dancing In The Light
DR7 -0.51 dB -9.19 dB 4:33 17-So Divine (Aladdin Story)
DR7 -0.51 dB -9.01 dB 5:26 18-Loving Cup (Alternate Take)
DR7 -0.51 dB -8.84 dB 3:59 19-Soul Survivor (Alternate Take)
DR7 -0.51 dB -8.78 dB 3:21 20-Good Time Women
DR6 -0.51 dB -8.23 dB 1:47 21-Title 5
––––––––––––––––––––––––––––––––––––––––

Number of tracks: 21
Official DR value: DR7

Samplerate: 44100 Hz
Channels: 2
Bits per sample: 24
Bitrate: 1710 kbps
Codec: FLAC
================================================================================



Thanks to the Original customer.