The Rolling Stones - Sticky Fingers Deluxe (Remastered) (1971/2020) [Official Digital Download]

Posted By: pyatak
The Rolling Stones - Sticky Fingers Deluxe (Remastered) (1971/2020) [Official Digital Download]

The Rolling Stones - Sticky Fingers Deluxe (Remastered) (1971/2020) [Official Digital Download]
FLAC (tracks) 24-bit/44.1 kHz | Front Cover | Time - 01:40:06 minutes | 1,18 GB
Rock, Blues Rock | Label: Polydor Records, Official Digital Download

Half Speed ReMasters HiRes Re-Issue: Regarded as one of The Rolling Stones’ all-time great albums, ‘Sticky Fingers’ captured the bands trademark combination of swagger and tenderness in a superb collection. The classic album features timeless songs such as ‘Brown Sugar,’ ‘Wild Horses,’ ‘Bitch,’ ‘Sister Morphine’ and ‘Dead Flowers’ and showcases the inventive song writing of Mick Jagger and Keith Richards and formidable guitar licks from Mick Taylor. All Deluxe and Super Deluxe formats will feature a generous selection of previously unavailable material. These include the alternative version of the chart-topping single ‘Brown Sugar’ featuring Eric Clapton; unreleased interpretations of ‘Bitch,’ ‘Can’t You Hear Me Knocking’ and ‘Dead Flowers’; an acoustic take on the anthemic ‘Wild Horses’, and five tracks recorded live at The Roundhouse in 1971 including ‘Honky Tonk Women’ and ‘Midnight Rambler.’

"Pieced together from outtakes and much-labored-over songs, Sticky Fingers manages to have a loose, ramshackle ambience that belies both its origins and the dark undercurrents of the songs. It's a weary, drug-laden album – well over half the songs explicitly mention drug use, while the others merely allude to it – that never fades away, but it barely keeps afloat. Apart from the classic opener, "Brown Sugar" (a gleeful tune about slavery, interracial sex, and lost virginity, not necessarily in that order), the long workout "Can't You Hear Me Knocking" and the mean-spirited "Bitch," Sticky Fingers is a slow, bluesy affair, with a few country touches thrown in for good measure. The laid-back tone of the album gives ample room for new lead guitarist Mick Taylor to stretch out, particularly on the extended coda of "Can't You Hear Me Knocking." But the key to the album isn't the instrumental interplay – although that is terrific – it's the utter weariness of the songs. "Wild Horses" is their first non-ironic stab at a country song, and it is a beautiful, heart-tugging masterpiece. Similarly, "I Got the Blues" is a ravished, late-night classic that ranks among their very best blues. "Sister Morphine" is a horrifying overdose tale, and "Moonlight Mile," with Paul Buckmaster's grandiose strings, is a perfect closure: sad, yearning, drug-addled, and beautiful. With its offhand mixture of decadence, roots music, and outright malevolence, Sticky Fingers set the tone for the rest of the decade for the Stones." (Stephen Thomas Erlewine, AMG)

TRACKLIST

1. The Rolling Stones - Brown Sugar
2. The Rolling Stones - Sway
3. The Rolling Stones - Wild Horses
4. The Rolling Stones - Can't You Hear Me Knocking
5. The Rolling Stones - You Gotta Move
6. The Rolling Stones - Bitch
7. The Rolling Stones - I Got The Blues
8. The Rolling Stones - Sister Morphine
9. The Rolling Stones - Dead Flowers
10. The Rolling Stones - Moonlight Mile
11. The Rolling Stones - Brown Sugar
12. The Rolling Stones - Wild Horses
13. The Rolling Stones - Can't You Hear Me Knocking
14. The Rolling Stones - Bitch
15. The Rolling Stones - Dead Flowers
16. The Rolling Stones - Live With Me
17. The Rolling Stones - Stray Cat Blues
18. The Rolling Stones - Love In Vain
19. The Rolling Stones - Midnight Rambler
20. The Rolling Stones - Honky Tonk Women

foobar2000 1.3.16 / Dynamic Range Meter 1.1.1
log date: 2020-06-26 13:43:39

––––––––––––––––––––––––––––––––––––––––
Analyzed: The Rolling Stones / Sticky Fingers (Remastered)
––––––––––––––––––––––––––––––––––––––––

DR Peak RMS Duration Track
––––––––––––––––––––––––––––––––––––––––
DR6 -0.50 dB -8.15 dB 3:49 01-Brown Sugar
DR5 -0.50 dB -6.83 dB 3:53 02-Sway
DR6 -0.60 dB -10.03 dB 5:44 03-Wild Horses
DR6 -0.60 dB -8.31 dB 7:16 04-Can't You Hear Me Knocking
DR10 -1.10 dB -13.37 dB 2:34 05-You Gotta Move
DR6 -0.60 dB -7.93 dB 3:38 06-Bitch
DR6 -0.50 dB -9.65 dB 3:55 07-I Got The Blues
DR7 -0.60 dB -10.62 dB 5:35 08-Sister Morphine
DR6 -0.60 dB -8.32 dB 4:05 09-Dead Flowers
DR6 -0.60 dB -9.47 dB 5:57 10-Moonlight Mile
––––––––––––––––––––––––––––––––––––––––

Number of tracks: 10
Official DR value: DR6

Samplerate: 44100 Hz
Channels: 2
Bits per sample: 24
Bitrate: 1564 kbps
Codec: FLAC
================================================================================

––––––––––––––––––––––––––––––––––––––––
Analyzed: The Rolling Stones / Sticky Fingers Deluxe (Remastered)
––––––––––––––––––––––––––––––––––––––––

DR Peak RMS Duration Track
––––––––––––––––––––––––––––––––––––––––
DR7 -0.67 dB -8.48 dB 4:07 11-Brown Sugar
DR7 -0.97 dB -10.69 dB 5:47 12-Wild Horses
DR7 -0.50 dB -8.93 dB 3:24 13-Can't You Hear Me Knocking
DR6 -0.50 dB -6.86 dB 5:53 14-Bitch
DR6 -0.62 dB -7.78 dB 4:18 15-Dead Flowers
DR5 -0.50 dB -7.34 dB 4:22 16-Live With Me
DR6 -0.50 dB -8.10 dB 3:48 17-Stray Cat Blues
DR7 -0.50 dB -10.29 dB 6:42 18-Love In Vain
DR6 -0.50 dB -8.36 dB 11:27 19-Midnight Rambler
DR7 -0.50 dB -9.09 dB 4:14 20-Honky Tonk Women
––––––––––––––––––––––––––––––––––––––––

Number of tracks: 10
Official DR value: DR6

Samplerate: 44100 Hz
Channels: 2
Bits per sample: 24
Bitrate: 1715 kbps
Codec: FLAC
================================================================================



Thanks to the Original customer.