Tags
Language
Tags

The War On Drugs - I Don’t Live Here Anymore (2021) [Official Digital Download]

Posted By: pyatak
The War On Drugs - I Don’t Live Here Anymore (2021) [Official Digital Download]

The War On Drugs - I Don’t Live Here Anymore (2021) [Official Digital Download]
FLAC (tracks) 24-bit/48 kHz | Front Cover | Time - 52:16 minutes | 678 MB
Alternative Rock | Label: Atlantic Records, Official Digital Download

It's been almost four full years since The War on Drugs graced us with their meticulously constructed Grammy Award-winning A Deeper Understanding in 2017. The subsequent tour, captured on 2020's Live Drugs was a victory lap that crystallized this group's electrifying performance prowess. Yet, it might be an understatement to say a lot has changed since then. An altering global string of events, frontman Adam Granduciel's newly-minted fatherhood, and an irrevocable shock to our relationship to live music. What's the journey of digesting change, and when do we amend? It's these very questions that provoke the resulting dynamism in this band's latest album I Don't Live Here Anymore—a cerebral, soul-slicing anthemic rock proclamation. With taut, sculpted hooks, and burly melodies, Granduciel has built an album exploring the ruffled and soothing energy of self-reflection.

With previous releases featuring decadent serpentines of shoegaze guitar echos, and groovy up-tempo long-form jams, Granduciel melded the best of both these worlds into this new record. From the opening track, "Living Proof," folksy strumming and staccato piano jabs glide above Granduciel, who recounts the strife in realizing the paradoxical swirling of an altered relationship: "I know the path/ I know it's changing/ I know the pain." "I Don't Wanna Wait" grapples with predicting life's changing tides. A metronome-like drum machine marches underneath fluid phase-y guitar fuzz with Granduciel's voice, drenched and reminiscent of a shotty phone connection calling out, "I don't wanna wait/ When I'm running to you" before continuing: "Show a little faith/ When I'm running to you." The album finds a triumphant peak in the title track "I Don't Live Here Anymore" where propellent, stadium-sized arpeggios ring out over a rock-solid drum groove. Granduciel, backed by the enchanting harmonies of folk duo Lucius, proclaims his unrelenting desire to make things right notwithstanding everything that's displaced ("I'm gonna walk through every doorway/ I can't stop/ I need some time, I need control/ I wanna find out everything I need to know").

Built equally for the headphones and for the arenas, I Don't Live Here Anymore stirs a universal truism and does so in kick-ass rock stylings: wrestling with the shifting tides of life is a constant, and the effort we make in spite of change makes all the difference. With sturdy lyrical themes and righteous melodic euphoria, The War on Drugs have crafted an album for taking the first step forward, which, while complex, is undoubtedly worthwhile.

TRACKLIST

1. Living Proof
2. Harmonia's Dream
3. Change
4. I Don't Wanna Wait
5. Victim
6. I Don't Live Here Anymore (+ Lucius)
7. Old Skin
8. Wasted
9. Rings Around My Father's Eyes
10. Occasional Rain

foobar2000 1.6.2 / Dynamic Range Meter 1.1.1
log date: 2021-10-28 13:04:25

––––––––––––––––––––––––––––––––––––––––
Analyzed: The War On Drugs / I Don’t Live Here Anymore
––––––––––––––––––––––––––––––––––––––––

DR Peak RMS Duration Track
––––––––––––––––––––––––––––––––––––––––
DR7 -0.41 dB -10.65 dB 4:54 01-Living Proof
DR5 0.00 dB -6.96 dB 6:26 02-Harmonia's Dream
DR6 -0.04 dB -7.38 dB 6:04 03-Change
DR5 -0.03 dB -7.12 dB 5:13 04-I Don't Wanna Wait
DR4 -0.16 dB -5.94 dB 6:00 05-Victim
DR4 -0.15 dB -5.76 dB 5:28 06-I Don't Live Here Anymore (feat. Lucius)
DR4 -0.04 dB -7.53 dB 4:52 07-Old Skin
DR5 -0.15 dB -6.02 dB 4:10 08-Wasted
DR5 -0.16 dB -7.07 dB 4:18 09-Rings Around My Father's Eyes
DR5 -0.04 dB -6.83 dB 4:54 10-Occasional Rain
––––––––––––––––––––––––––––––––––––––––

Number of tracks: 10
Official DR value: DR5

Samplerate: 48000 Hz
Channels: 2
Bits per sample: 24
Bitrate: 1831 kbps
Codec: FLAC
================================================================================



Thanks to the Original customer.