Thelonious Monk - Always Know (1979/2018) [Official Digital Download 24/192]

Posted By: pyatak
Thelonious Monk - Always Know (1979/2018) [Official Digital Download 24/192]

Thelonious Monk - Always Know (1979/2018) [Official Digital Download 24/192]
FLAC (tracks) 24-bit/192 kHz | Front Cover | Time - 88:34 minutes | 3,44 GB
Jazz | Label: Columbia - Legacy, Official Digital Download

Thelonious Monk fans in particular are advised to search for this valuable two-LP set for it contains a variety of unissued material from the pianist/composer's six-year period with Columbia. Monk is heard on three piano solos, with his regular working quartet, heading a trio on "Easy Street" and at his renowned Lincoln Center concert with a nonet on "Light Blue" and "Bye Ya." The music on this two-fer is at the same consistent high level as his Columbia recordings of the 1960s and contains some surprising moments.

TRACKLIST

1. Thelonious Monk - This Is My Story, This Is My Song (Take 1)
2. Thelonious Monk - Criss Cross
3. Thelonious Monk - Light Blue (Live)
4. Thelonious Monk - Monk's Dream (Take 3)
5. Thelonious Monk - Played Twice
6. Thelonious Monk - Darn That Dream
7. Thelonious Monk - Epistrophy
8. Thelonious Monk - Coming On the Hudson (Take 3)
9. Thelonious Monk - Bye-Ya
10. Thelonious Monk - Introspection
11. Thelonious Monk - Easy Street
12. Thelonious Monk - Shuffle Boil
13. Thelonious Monk - Honeysuckle Rose (Live)

foobar2000 1.6.2 / Dynamic Range Meter 1.1.1
log date: 2021-04-10 22:37:19

––––––––––––––––––––––––––––––––––––––––
Analyzed: Thelonious Monk / Always Know
––––––––––––––––––––––––––––––––––––––––

DR Peak RMS Duration Track
––––––––––––––––––––––––––––––––––––––––
DR15 -6.03 dB -25.60 dB 1:43 01-This Is My Story, This Is My Song (Take 1)
DR13 -4.37 dB -21.14 dB 8:11 02-Criss Cross
DR15 -3.01 dB -21.50 dB 12:51 03-Light Blue (Live)
DR12 -2.78 dB -16.81 dB 5:18 04-Monk's Dream (Take 3)
DR14 -4.60 dB -21.76 dB 7:35 05-Played Twice
DR13 -4.36 dB -20.90 dB 3:41 06-Darn That Dream
DR14 -3.65 dB -19.64 dB 5:08 07-Epistrophy
DR13 -2.94 dB -18.48 dB 7:35 08-Coming On the Hudson (Take 3)
DR13 -3.42 dB -20.19 dB 11:07 09-Bye-Ya
DR14 -6.01 dB -21.87 dB 2:17 10-Introspection
DR18 -4.12 dB -24.31 dB 7:52 11-Easy Street
DR15 -2.28 dB -20.48 dB 5:27 12-Shuffle Boil
DR14 -2.64 dB -22.00 dB 9:56 13-Honeysuckle Rose (Live)
––––––––––––––––––––––––––––––––––––––––

Number of tracks: 13
Official DR value: DR14

Samplerate: 192000 Hz
Channels: 2
Bits per sample: 24
Bitrate: 5527 kbps
Codec: FLAC
================================================================================



Thanks to the Original customer.