Thierry Bruyère - Rêver plus fort (2017) [Official Digital Download]

Posted By: pyatak
Thierry Bruyère - Rêver plus fort (2017) [Official Digital Download]

Thierry Bruyère - Rêver plus fort (2017 )
FLAC (tracks) 24-bit/44.1 kHz | Front Cover | Time - 48:25 minutes | 553 MB
Pop, Rock | Label: Les disques de la cordonnerie, Official Digital Download

Avec l'album «Rêver plus fort», Thierry Bruyère et le réalisateur Navet Confit proposent un album aux influences new wave et post-punk, avec de la guitare, des claviers rétro, des voix aériennes et des clins d'oeil à Indochine, The Cure et Bashung. Le premier extrait de l'album, «Au service de Sa Majesté», aura valu à Thierry d'être la future star iHeard radio du mois d'août sur Énergie.

TRACKLIST

01. Comme au cinéma
02. Rêver plus fort
03. Même quand il pleut
04. Un filigrane de toi
05. Quand l'avion se pose
06. Ton silence
07. Mary Shelley
08. En attendant
09. Nos excuses à nos parents
10. Au service de Sa Majesté
11. Le jour où nous aurons cessé d'exister
12. Revoir les Îles

foobar2000 1.3.16 / Dynamic Range Meter 1.1.1
log date: 2017-10-20 20:50:21

––––––––––––––––––––––––––––––––––––––––
Analyzed: Thierry Bruyère / Rêver plus fort
––––––––––––––––––––––––––––––––––––––––

DR Peak RMS Duration Track
––––––––––––––––––––––––––––––––––––––––
DR5 -0.71 dB -6.83 dB 4:26 01-Comme au cinéma
DR5 -0.71 dB -7.92 dB 3:55 02-Rêver plus fort
DR6 -0.71 dB -8.06 dB 3:56 03-Même quand il pleut
DR6 -0.71 dB -7.55 dB 4:21 04-Un filigrane de toi
DR5 -0.71 dB -6.74 dB 3:24 05-Quand l'avion se pose
DR6 -0.71 dB -7.70 dB 4:47 06-Ton silence
DR6 -0.71 dB -8.33 dB 3:46 07-Mary Shelley
DR6 -0.71 dB -8.24 dB 3:44 08-En attendant
DR5 -0.71 dB -6.55 dB 5:00 09-Nos excuses à nos parents
DR6 -0.71 dB -7.59 dB 2:53 10-Au service de Sa Majesté
DR6 -0.71 dB -7.11 dB 3:22 11-Le jour où nous aurons cessé d'exister
DR5 -0.71 dB -7.98 dB 4:51 12-Revoir les Îles
––––––––––––––––––––––––––––––––––––––––

Number of tracks: 12
Official DR value: DR5

Samplerate: 44100 Hz
Channels: 2
Bits per sample: 24
Bitrate: 1477 kbps
Codec: FLAC
================================================================================



Thanks to the Original customer.