Jean-Guihen Queyras, Sokratis Sinopoulos, Bijan Chemirani & Keyvan Chemirani - Thrace (Sunday morning Sessions) (2016) [24/88]

Posted By: SERTiL
Jean-Guihen Queyras, Sokratis Sinopoulos, Bijan Chemirani & Keyvan Chemirani - Thrace (Sunday morning Sessions) (2016) [24/88]

Jean-Guihen Queyras, Sokratis Sinopoulos, Bijan Chemirani & Keyvan Chemirani - Thrace (Sunday morning Sessions) (2016)
FLAC (tracks) 24-bit/88.2 kHz | Time - 63:03 minutes | 1.11 GB
Studio Master, Official Digital Download | Artwork: Digital booklet

The ancient Indo-European civilization of Thrace was adventurous, inquisitive and open to exchange with other cultures. These key principles of the Thracians serve as a beautiful metaphor for this ensemble featuring cellist Jean-Guihen Queyras. From the captivating percussion of the Chemirani brothers (who grew up alongside Queyras on the hillsides of Provence) to the magical lyra of Sokratis Sinopoulos, these Sunday morning sessions open gateways into undiscovered musical worlds. Here contemporary exploration, improvisation and the traditional music of the Mediterranean converge in one powerful and irresistible spirit.

TRACKLIST
1 Khamse 03:28
2 Nihavent Semai 07:09
3 Sacher Variation 03:53
4 Zarbi é Shustari 06:14
5 Visite nocturne 02:13
6 I would I were a bird 06:18
7 Sunday morning 04:37
8 Dast é Kyan 07:07
9 Étude Digitale 05:25
10 Hasapiko 05:56
11 Karsilama 03:15
12 Dance in 7/8 07:28

PERSONNEL
Jean-Guihen Queyras, cello
Bijan Chemirani, percussion
Keyvan Chemirani, percussion
Sokratis Sinopoulos, lyra

foobar2000 1.3.7 / Dynamic Range Meter 1.1.1
log date: 2017-09-18 18:24:35

––––––––––––––––––––––––––––––––––––––––
Analyzed: Jean-Guihen Queyras, Sokratis Sinopoulos, Bijan Chemirani & Keyvan Chemirani / Thrace (Sunday morning Sessions)
––––––––––––––––––––––––––––––––––––––––

DR Peak RMS Duration Track
––––––––––––––––––––––––––––––––––––––––
DR10 -0.15 dB -12.71 dB 3:28 01-Khamse
DR11 -0.15 dB -14.60 dB 7:09 02-Nihavent Semai
DR13 -1.65 dB -20.05 dB 3:53 03-Sacher Variation
DR11 -0.15 dB -14.66 dB 6:14 04-Zarbi é Shustari
DR12 -4.62 dB -19.93 dB 2:14 05-Visite nocturne
DR12 -3.30 dB -20.83 dB 6:18 06-I would I were a bird
DR9 -0.13 dB -11.39 dB 4:37 07-Sunday morning
DR13 -0.15 dB -16.50 dB 7:07 08-Dast é Kyan
DR18 -0.15 dB -23.29 dB 5:25 09-Étude Digitale
DR10 -0.15 dB -13.67 dB 5:57 10-Hasapiko
DR9 -0.15 dB -12.06 dB 3:15 11-Karsilama
DR10 -0.15 dB -14.30 dB 7:29 12-Dance in 7/8
––––––––––––––––––––––––––––––––––––––––

Number of tracks: 12
Official DR value: DR12

Samplerate: 88200 Hz
Channels: 2
Bits per sample: 24
Bitrate: 2553 kbps
Codec: FLAC
================================================================================


Thanks to the Original customer.