Tom Waits - The Heart Of Saturday Night (Remastered) (1974/2018) [Official Digital Download 24/96]

Posted By: Pisulik
Tom Waits - The Heart Of Saturday Night (Remastered) (1974/2018) [Official Digital Download 24/96]

Tom Waits - The Heart Of Saturday Night (Remastered) (1974/2018)
FLAC (tracks) 24-bit/96 kHz | Time - 41:28 minutes | 839 MB
Studio Master, Official Digital Download | Artwork: Front cover

The Heart of Saturday Night, largely dispenses with the romance in favor of poetic depictions of the same setting. The album contains the same mixture of folk, blues, and jazz as its predecessor, with producer Bones Howe occasionally bringing in an orchestra to underscore the loping melodies.

On his second album, Waits moved beyond the simple folk-rock arrangements of his debut to explore jazzier realms. Though artistically Waits was still in his infancy, it was here that he began to develop the bedraggled, chain-smoking, whiskey-swilling, beat poetry-spouting street character image that he expanded on throughout the '70s. The arrangements are based around Waits' voice (beginning to develop that famous rasp) and piano, supported '50s-style West Coast jazz touches. Since Waits was still struggling through the imitation phase of his fascination with the writing of Kerouac, Bukowski, etc., some of the lyrics seem callow, but even at this early stage he could still produce gems. "The Heart of Saturday Night" (sort of a low-key sequel to "Ol' '55") and the late-night lonesome blues of "Please Call Me Baby" are worth the price of entry in and of themselves.

If Closing Time, Tom Waits' debut album, consisted of love songs set in a late-night world of bars and neon signs, its follow-up, The Heart of Saturday Night, largely dispenses with the romance in favor of poetic depictions of the same setting. On "Diamonds on My Windshield" and "The Ghosts of Saturday Night," Waits doesn't even sing, instead reciting his verse rhythmically against bass and drums like a Beat hipster. Musically, the album contains the same mixture of folk, blues, and jazz as its predecessor, with producer Bones Howe occasionally bringing in an orchestra to underscore the loping melodies. Waits' songs are sometimes sketchier in addition to being more impersonal, but "(Looking For) The Heart of Saturday Night" and "Semi Suite" are the equal of anything on Closing Time. Still, with lines such as "…the clouds are like headlines/Upon a new front page sky" and references to "a 24-hour moon" and "champagne stars," Waits' imagery is beginning to get florid, and in material this stylized, the danger of self-parody is always present.

Tracklist:

01. New Coat Of Paint
02. San Diego Serenade
03. Semi Suite
04. Shiver Me Timbers
05. Diamonds On My Windshield
06. (Looking For) The Heart Of Saturday Night
07. Fumblin’ With The Blues
08. Please Call Me, Baby
09. Depot, Depot
10. Drunk On The Moon
11. The Ghosts Of Saturday Night (After Hours At Napoleone’s Pizza House)

Personnel:

Tom Waits, vocals, guitar, piano
Gene Cipriano, clarinet
Frank Vicari, tenor saxophone
Jack Sheldon, trumpet
Shelly Manne, drums
Bones Howe, percussion

foobar2000 1.3.7 / Dynamic Range Meter 1.1.1
log date: 2018-03-08 15:54:36

––––––––––––––––––––––––––––––––––––––––
Analyzed: Tom Waits / The Heart Of Saturday Night (Remastered)
––––––––––––––––––––––––––––––––––––––––

DR Peak RMS Duration Track
––––––––––––––––––––––––––––––––––––––––
DR8 -0.13 dB -10.66 dB 3:23 01-New Coat Of Paint
DR10 -0.16 dB -12.13 dB 3:30 02-San Diego Serenade
DR10 -0.13 dB -11.71 dB 3:29 03-Semi Suite
DR9 -0.13 dB -11.63 dB 4:27 04-Shiver Me Timbers
DR10 -0.13 dB -11.44 dB 3:12 05-Diamonds On My Windshield
DR10 -0.21 dB -11.48 dB 3:53 06-(Looking For) The Heart Of Saturday Night
DR8 -0.12 dB -10.27 dB 3:03 07-Fumblin’ With The Blues
DR9 -0.13 dB -10.70 dB 4:26 08-Please Call Me, Baby
DR9 -0.13 dB -11.32 dB 3:47 09-Depot, Depot
DR10 -0.14 dB -12.40 dB 5:07 10-Drunk On The Moon
DR12 -0.14 dB -15.06 dB 3:17 11-The Ghosts Of Saturday Night (After Hours At Napoleone’s Pizza House)
––––––––––––––––––––––––––––––––––––––––

Number of tracks: 11
Official DR value: DR9

Samplerate: 96000 Hz
Channels: 2
Bits per sample: 24
Bitrate: 2798 kbps
Codec: FLAC
================================================================================


All thanks go to the original releaser