Travis Biggs - Solar Funk (1979/2021) [Official Digital Download]

Posted By: pyatak
Travis Biggs - Solar Funk (1979/2021) [Official Digital Download]

Travis Biggs - Solar Funk (1979/2021) [Official Digital Download]
FLAC (tracks) 24-bit/44.1 kHz | Front Cover | Time - 34:52 minutes | 408 MB
Jazz, Funk | Label: Crimson, Official Digital Download

Travis Biggs is a keyboardist and violinist – and he’s best known for his one album Solar Funk on the Source label – but this is an earlier release that predates that one, issued on a small Detroit label, and with a rawer sound overall! The groove is sort of spacey jazz funk fusion – with vocals on a few cuts, but mostly a focus on the instrumental side of the album – served up by Travis on Fender Rhodes, synth, organ, harp, mandolin, and electric violin. Some numbers are laidback and mellow, but many others are upbeat and very grooving – with almost a boogie funk sort of groove!

Includes original versions of the tracks “Solar Funk” and “Tibetan Serenity“, the latter of which is an excellent instrumental with a very famous sample – plus the cuts “I Wish“, “Fly Like An Eagle“.

TRACKLIST

1. Travis Biggs - Autumn Jewel
2. Travis Biggs - After the Storm
3. Travis Biggs - Tibetian Serenity
4. Travis Biggs - Ven a Bailar Conmigo
5. Travis Biggs - Nashville Express
6. Travis Biggs - Solar Funk
7. Travis Biggs - It's Live

foobar2000 1.6.2 / Dynamic Range Meter 1.1.1
log date: 2021-06-13 18:50:31

––––––––––––––––––––––––––––––––––––––––
Analyzed: Travis Biggs / Solar Funk
––––––––––––––––––––––––––––––––––––––––

DR Peak RMS Duration Track
––––––––––––––––––––––––––––––––––––––––
DR11 0.00 dB -13.04 dB 3:30 01-Autumn Jewel
DR12 -0.44 dB -14.37 dB 4:39 02-After the Storm
DR12 -0.42 dB -14.48 dB 5:22 03-Tibetian Serenity
DR10 -0.65 dB -13.39 dB 4:21 04-Ven a Bailar Conmigo
DR11 -0.45 dB -12.95 dB 3:37 05-Nashville Express
DR10 -0.36 dB -13.01 dB 7:37 06-Solar Funk
DR12 -0.15 dB -13.42 dB 5:51 07-It's Live
––––––––––––––––––––––––––––––––––––––––

Number of tracks: 7
Official DR value: DR11

Samplerate: 44100 Hz
Channels: 2
Bits per sample: 24
Bitrate: 1712 kbps
Codec: FLAC
================================================================================



Thanks to the Original customer.