Tyler Bates And Joel J. Richard - John Wick: Chapter 3 – Parabellum (2019) [Official Digital Download]

Posted By: Pisulik
Tyler Bates And Joel J. Richard - John Wick: Chapter 3 – Parabellum (2019) [Official Digital Download]

Tyler Bates And Joel J. Richard - John Wick: Chapter 3 – Parabellum (2019)
FLAC (tracks) 24-bit/48 kHz | Time - 65:49 minutes | 762 MB
Studio Master, Official Digital Download | Artwork: Front cover

Original Motion Picture Soundtrack (Vinyl Release) from the movie John Wick Chapter 3: Parabellum (2019). The film music composed by Tyler Bates (The Public, The Punisher, Atomic Blonde) and Joel J. Richard. John Wick 3: Parabellum (John Wick: Chapter 3) is a 2019 American action thriller film, the third film in the John Wick film series. The film is written by Derek Kolstad, Chris Collins, Marc Abrams, Shay Hatten, directed by Chad Stahelski, starring – Keanu Reeves, Halle Berry, Ian McShane, Ruby Rose, Hiroyuki Sanada, Common, Lance Reddick, Mark Dacascos, Laurence Fishburne.

Tracklist:

1 Parabellum (Opening Titles)
2 Tick Tock Mr. Wick
3 Taxi Ride
4 Excommunicado
5 Rain Chase
6 Antique Gun Assembly
7 J.W. Horse Whisperer
8 Dance of the Two Wolves
9 The Adjudicator
10 Wick In Morocco
11 Kill What You Love
12 Continental Morocco
13 Desert Walk
14 Elder Tent Offering
15 He Shot My Dog
16 Grand Central Station
17 Cycle Samurais
18 The Glass House
19 Deconsecrated
20 Winter At The Continental
21 Shotgun Hot Tub
22 Glass House Fight
23 Zero vs Wick
24 Really Pissed Off (End Credits)

foobar2000 1.3.7 / Dynamic Range Meter 1.1.1
log date: 2019-12-03 01:42:44

––––––––––––––––––––––––––––––––––––––––
Analyzed: Julia Aks / John Wick: Chapter 3 – Parabellum (1)
Tyler Bates / John Wick: Chapter 3 – Parabellum (2-24)
––––––––––––––––––––––––––––––––––––––––

DR Peak RMS Duration Track
––––––––––––––––––––––––––––––––––––––––
DR5 -0.63 dB -8.02 dB 1:48 08-Dance Of The Two Wolves
DR5 -0.66 dB -7.89 dB 0:48 01-Parabellum (Opening Titles)
DR4 -0.65 dB -7.06 dB 3:12 02-Tick Tock Mr. Wick
DR6 -0.68 dB -9.98 dB 2:48 03-Taxi Ride
DR5 -0.68 dB -7.36 dB 1:25 04-Excomunicado
DR5 -0.67 dB -7.41 dB 1:40 05-Rain Chase
DR7 -0.66 dB -9.87 dB 1:26 06-Antique Gun Assembly
DR5 -0.66 dB -7.54 dB 2:05 07-J.W. Horse Whisperer
DR5 -0.70 dB -10.04 dB 2:55 09-The Adjudicator
DR6 -0.67 dB -9.31 dB 2:07 10-Wick In Morocco
DR9 -0.70 dB -13.90 dB 2:21 11-Kill What You Love
DR6 -0.69 dB -11.35 dB 3:39 12-Continental Morocco
DR7 -0.69 dB -12.21 dB 2:11 13-Desert Walk
DR10 -0.70 dB -16.39 dB 4:56 14-Elder Tent Offering
DR5 -0.68 dB -9.05 dB 1:20 15-He Shot My Dog
DR6 -0.69 dB -10.72 dB 2:19 16-Grand Central Station
DR5 -0.60 dB -7.87 dB 4:07 17-Cycle Samurais
DR9 -0.70 dB -13.94 dB 4:38 18-The Glass House
DR4 -0.66 dB -6.60 dB 3:18 19-Deconsecrated
DR6 -0.61 dB -8.28 dB 2:50 20-Winter At The Continental
DR5 -0.66 dB -8.40 dB 3:23 21-Shotgun Hot Tub
DR5 -0.65 dB -8.82 dB 4:13 22-Glass House Fight
DR6 -0.62 dB -10.10 dB 4:44 23-Zero Vs Wick
DR4 -0.68 dB -6.81 dB 1:38 24-Really Pissed Off (End Credits)
––––––––––––––––––––––––––––––––––––––––

Number of tracks: 24
Official DR value: DR6

Samplerate: 48000 Hz
Channels: 2
Bits per sample: 24
Bitrate: 1701 kbps
Codec: FLAC
================================================================================


All thanks go to the original releaser