VA - A Little Magic in a Noisy World (Music in the Spirit of Jazz) (2019) [Official Digital Download]

Posted By: pyatak
VA - A Little Magic in a Noisy World (Music in the Spirit of Jazz) (2019) [Official Digital Download]

VA - A Little Magic in a Noisy World (Music in the Spirit of Jazz) (2019) [Official Digital Download]
FLAC (tracks) 24-bit/44.1 kHz | Front Cover | Time - 01:12:33 minutes | 739 MB
Jazz | Label: ACT Music, Official Digital Download

Play without borders: ACT World-Jazz-Samplerthe Word "World Jazz" brings (at least) three facts to the term. First, the horizon of Jazz is not just from New York to San Francisco. Secondly, The musical Material of all the "Folklore" of this world with the means of contemporary art of improvisation, so reforging that the result sounds more like Jazz than to "ethnic music". Thirdly, the rediscovery of the region has nothing to do with provincialism or even separatism. Instead, the artists share what they find in their musical tradition with the world.Some of the musicians gathered on this Sampler speak, so to speak, the American Jazz with the accent of their respective mother tongue. Others add or expand new words to it…

TRACKLIST

1 Come Together
2 Leklåt
3 Cello Bello
4 Ahlam
5 Seven Days of Falling
6 Brutal Truth
7 Silent Ways
8 Hippie
9 Shining on You (Live) (Live)
10 Dolores Angel
11 Barcelona - Wien
12 Air
13 B&h (Live) (Live)
14 Tears for Esbjörn

foobar2000 1.3.16 / Dynamic Range Meter 1.1.1
log date: 2019-02-11 18:33:25

––––––––––––––––––––––––––––––––––––––––
Analyzed: Cæcilie Norby / A Little Magic in a Noisy World (Music in the Spirit of Jazz) (1)
David Helbock with Johannes Bär & Andreas Broger / A Little Magic in a Noisy World (Music in the Spirit of Jazz) (2)
Dieter Ilg with Rainer Böhm & Patrice Héral / A Little Magic in a Noisy World (Music in the Spirit of Jazz) (3)
Emile Parisien, Vincent Peirani, Andreas Schaerer & Michael Wollny / A Little Magic in a Noisy World (Music in the Spirit of Jazz) (4)
Iiro Rantala, Viktoria Tolstoy, Ulf Wakenius, Lars Danielsson & Morten Lund / A Little Magic in a Noisy World (Music in the Spirit of Jazz) (5)
Iiro Rantala / A Little Magic in a Noisy World (Music in the Spirit of Jazz) (6)
Joachim Kühn with Eric Schaefer & Chris Jennings / A Little Magic in a Noisy World (Music in the Spirit of Jazz) (7)
Julian & Roman Wasserfuhr with Jörg Brinkmann / A Little Magic in a Noisy World (Music in the Spirit of Jazz) (8)
Laila Biali / A Little Magic in a Noisy World (Music in the Spirit of Jazz) (9)
Magnus Lindgren feat. Ida Sand / A Little Magic in a Noisy World (Music in the Spirit of Jazz) (10)
NES / A Little Magic in a Noisy World (Music in the Spirit of Jazz) (11)
Nils Landgren, Ulf Wakenius & Lars Danielsson / A Little Magic in a Noisy World (Music in the Spirit of Jazz) (12)
Paolo Fresu, Richard Galliano & Jan Lundgren / A Little Magic in a Noisy World (Music in the Spirit of Jazz) (13)
Wolfgang Haffner with Jukka Perko, Dusko Goykovich, Jan Lundgren, Christopher Dell & Dan Berglund / A Little Magic in a Noisy World (Music in the Spirit of Jazz) (14)
––––––––––––––––––––––––––––––––––––––––

DR Peak RMS Duration Track
––––––––––––––––––––––––––––––––––––––––
DR11 -0.94 dB -15.92 dB 3:28 07-Silent Ways
DR10 -0.71 dB -15.20 dB 6:09 05-Seven Days of Falling
DR14 -1.13 dB -19.43 dB 4:57 12-Air
DR9 -0.16 dB -13.74 dB 9:56 13-B&h (Live)
DR11 -0.62 dB -15.11 dB 6:29 09-Shining on You (Live)
DR15 -0.10 dB -20.18 dB 5:32 14-Tears for Esbjörn
DR9 -0.14 dB -12.86 dB 3:50 11-Barcelona-Wien
DR9 -0.71 dB -12.89 dB 4:09 03-Cello Bello
DR6 -0.06 dB -9.82 dB 4:35 10-Dolores Angel
DR7 -0.21 dB -8.27 dB 4:42 06-Brutal Truth
DR9 -0.15 dB -11.36 dB 4:48 04-Ahlam
DR7 -0.72 dB -9.52 dB 4:26 01-Come Together
DR10 -0.19 dB -12.79 dB 4:02 02-Leklåt
DR10 0.00 dB -12.76 dB 5:39 08-Hippie
––––––––––––––––––––––––––––––––––––––––

Number of tracks: 14
Official DR value: DR10

Samplerate: 44100 Hz
Channels: 2
Bits per sample: 24
Bitrate: 1442 kbps
Codec: FLAC
================================================================================



Thanks to the Original customer.