VA - Sunday in the Park with George: 2017 Broadway Cast Recording (2017) [Official Digital Download]

Posted By: pyatak
VA - Sunday in the Park with George: 2017 Broadway Cast Recording (2017) [Official Digital Download]

VA - Sunday in the Park with George: 2017 Broadway Cast Recording (2017) [Official Digital Download]
FLAC (tracks) 24-bit/44.1 kHz | Front Cover | Time - 01:18:07 minutes | 815 MB
Pop, Soundtracks | Label: Arts Music, Official Digital Download

The cast recording of the recent, highly acclaimed, sold-out Broadway revival of Sunday in the Park with George, starring Jake Gyllenhaal in his Broadway debut and Tony-winning actress Annaleigh Ashford, is set for release on December 8 via the Arts Music division at Warner Music Group. Produced and mixed by Bart Migal, the album features the entire cast of the Sarna Lapine-directed production of the Pulitzer Prize-winning masterpiece with music and lyrics by Stephen Sondheim and book by James Lapine, including Tony Award nominee Brooks Ashmanskas, Jenni Barber, Tony Award nominee Phillip Boykin, Mattea Conforti, Erin Davie, Claybourne Elder, Tony Award nominee Penny Fuller, Jordan Gelber, Tony Award winner Robert Sean Leonard, Liz McCartney, Tony Award winner Ruthie Ann Miles, Ashley Park, Jennifer Sanchez, David Turner, Max Chernin, MaryAnn Hu, Tony Award nominee Michael McElroy, Jaime Rosenstein, Laura Irion, Julie Foldesi, and Andrew Kober.
The show, which was widely praised by critics and recouped its investment in just 56 performances, follows painter Georges Seurat in the months leading up to the completion of his most famous painting, A Sunday Afternoon on the Island of La Grande Jatte, and its reverberations both in the present and 100 years into the future. Of Gyllenhaal's performance, The New York Times' Ben Brantley declared that "it's impossible not to fall in love." Now, with the release of the cast recording, those who were unable to experience the production live will have the opportunity to hear for themselves.

TRACKLIST

1. Jake Gyllenhaal - Opening
2. Annaleigh Ashford - Sunday in the Park with George
3. Robert Sean Leonard & Erin Davie - No Life
4. Annaleigh Ashford & Jake Gyllenhaal - Color and Light
5. Ashley Park, Jenni Barber, Phillip Boykin, Jennifer Sanchez, Penny Fuller, Erin Davie & Robert Sean Leonard - Gossip
6. Jake Gyllenhaal - The Dog Song
7. Sunday in the Park with George 2017 Broadway Ensemble - The Day Off
8. Annaleigh Ashford - Everybody Loves Louis
9. Jake Gyllenhaal - Finishing the Hat
10. Annaleigh Ashford & Jake Gyllenhaal - We Do Not Belong Together
11. Penny Fuller & Jake Gyllenhaal - Beautiful
12. Sunday In The Park With George 2017 Broadway Company - Sunday
13. Sunday In The Park With George 2017 Broadway Company - It's Hot Up Here
14. Jake Gyllenhaal - Chromolume #7
15. Jake Gyllenhaal & Sunday In The Park With George 2017 Broadway Company - Putting It Together
16. Annaleigh Ashford - Children and Art
17. Jake Gyllenhaal - Lesson #8
18. Jake Gyllenhaal & Annaleigh Ashford - Move On
19. Sunday In The Park With George 2017 Broadway Company - Sunday (Finale)

foobar2000 1.3.16 / Dynamic Range Meter 1.1.1
log date: 2017-12-06 19:16:50

––––––––––––––––––––––––––––––––––––––––
Analyzed: Annaleigh Ashford & Jake Gyllenhaal / Sunday in the Park with George (2017 Broadway Cast Recording) (1-2)
Annaleigh Ashford / Sunday in the Park with George (2017 Broadway Cast Recording) (3-5)
Ashley Park, Jenni Barber, Phillip Boykin, Jennifer Sanchez, Penny Fuller, Erin Davie & Robert Sean Leonard / Sunday in the Park with George (2017 Broadway Cast Recording) (6)
Jake Gyllenhaal & Annaleigh Ashford / Sunday in the Park with George (2017 Broadway Cast Recording) (7)
Jake Gyllenhaal & Sunday In The Park With George 2017 Broadway Company / Sunday in the Park with George (2017 Broadway Cast Recording) (8)
Jake Gyllenhaal / Sunday in the Park with George (2017 Broadway Cast Recording) (9-13)
Penny Fuller & Jake Gyllenhaal / Sunday in the Park with George (2017 Broadway Cast Recording) (14)
Robert Sean Leonard & Erin Davie / Sunday in the Park with George (2017 Broadway Cast Recording) (15)
Sunday In The Park With George 2017 Broadway Company / Sunday in the Park with George (2017 Broadway Cast Recording) (16-18)
Sunday in the Park with George 2017 Broadway Ensemble / Sunday in the Park with George (2017 Broadway Cast Recording) (19)
––––––––––––––––––––––––––––––––––––––––

DR Peak RMS Duration Track
––––––––––––––––––––––––––––––––––––––––
DR11 0.00 dB -15.45 dB 8:35 04-Color and Light
DR9 0.00 dB -12.43 dB 3:19 10-We Do Not Belong Together
DR10 0.00 dB -14.45 dB 5:35 02-Sunday in the Park with George
DR10 0.00 dB -14.07 dB 3:39 08-Everybody Loves Louis
DR14 -0.07 dB -19.24 dB 4:43 16-Children and Art
DR9 0.00 dB -11.76 dB 0:59 05-Gossip
DR8 0.00 dB -12.79 dB 4:39 18-Move On
DR11 0.00 dB -15.45 dB 9:42 15-Putting It Together
DR13 -1.32 dB -19.04 dB 1:22 01-Opening
DR12 0.00 dB -15.70 dB 3:36 06-The Dog Song
DR10 0.00 dB -14.93 dB 3:33 09-Finishing the Hat
DR8 0.00 dB -11.35 dB 1:09 14-Chromolume #7
DR13 -0.02 dB -17.41 dB 2:51 17-Lesson #8
DR11 -0.07 dB -15.38 dB 3:47 11-Beautiful
DR11 -0.02 dB -14.07 dB 1:45 03-No Life
DR7 0.00 dB -11.98 dB 4:40 12-Sunday
DR9 0.00 dB -14.72 dB 4:41 13-It's Hot Up Here
DR8 0.00 dB -13.86 dB 4:13 19-Sunday (Finale)
DR12 0.00 dB -15.13 dB 5:27 07-The Day Off
––––––––––––––––––––––––––––––––––––––––

Number of tracks: 19
Official DR value: DR10

Samplerate: 44100 Hz
Channels: 2
Bits per sample: 24
Bitrate: 1485 kbps
Codec: FLAC
================================================================================



Thanks to the Original customer.