Subcategories

VA - Tegan And Sara Present The Con X: Covers (2017) [Official Digital Download 24/96]

Posted By: Pisulik
VA - Tegan And Sara Present The Con X: Covers (2017) [Official Digital Download 24/96]

VA - Tegan And Sara Present The Con X: Covers (2017)
FLAC (tracks) 24-bit/96 kHz | Time - 59:52 minutes | 1,15 GB
Studio Master, Official Digital Download | Artwork: Digital Booklet, Front cover

To commemorate the 10th anniversary of Tegan and Sara's classic 2007 album, The Con, Warner Bros. Records releases The Con X: Covers. The album features 14 of Tegan and Sara's favorite artists, each interpreting a song from the original album. Tegan says, "As the 10th anniversary of The Con approached, Sara and I started to brainstorm meaningful ways to celebrate what was easily one of our most important records. Almost immediately we established that a tour playing all 14 songs in a more intimate and stripped-down arrangement would be memorable for our diehard fans. But we also wanted a companion piece that would live on past the anniversary, hence The Con X: Covers album was born. We wanted the proceeds to go to our recently launched Tegan and Sara Foundation, which raises money for self-identified women and girls in the LGBTQ community. With that intention set, we asked 14 artists who were either outspoken allies of the LGTBQ community or LGBTQ themselves to each cover a song from The Con, in any fashion they saw fit. All the artists agreed to donate their time and energy to the project and their labels all agreed to waive their fees as well. We are beyond grateful for the contributions of each artist, and we hope fans of The Con will be moved by their interpretations."

Tracklist:

01. Ruth B. - I Was Married
02. MUNA - Relief Next to Me
03. Shura - The Con
04. Mykki Blanco - Knife Going In
05. PVRIS - Are You Ten Years Ago
06. Ryan Adams - Back In Your Head
07. City and Colour - Hop a Plane
08. Kelly Lee Owens - Soil, Soil
09. Bleachers - Burn Your Life Down
10. Hayley Williams of Paramore - Nineteen
11. Sara Bareilles - Floorplan
12. Shamir - Like O, Like H
13. Trashique (GRIMES X HANA) - Dark Come Soon
14. CHVRCHES - Call It Off
15. Cyndi Lauper - Back In Your Head (Bonus Track)
16. Bleached - One Second (Bonus Track)
17. Vivek Shraya - I Take All the Blame (Bonus Track)
18. Tegan And Sara - Miami Still (Demo) (Bonus Track)

foobar2000 1.3.7 / Dynamic Range Meter 1.1.1
log date: 2017-10-20 01:04:55

––––––––––––––––––––––––––––––––––––––––
Analyzed: Bleached / Tegan And Sara Present The Con X: Covers (1)
Bleachers / Tegan And Sara Present The Con X: Covers (2)
CHVRCHES / Tegan And Sara Present The Con X: Covers (3)
City and Colour / Tegan And Sara Present The Con X: Covers (4)
Cyndi Lauper / Tegan And Sara Present The Con X: Covers (5)
Hayley Williams of Paramore / Tegan And Sara Present The Con X: Covers (6)
Kelly Lee Owens / Tegan And Sara Present The Con X: Covers (7)
Muna / Tegan And Sara Present The Con X: Covers (8)
Mykki Blanco / Tegan And Sara Present The Con X: Covers (9)
PVRIS / Tegan And Sara Present The Con X: Covers (10)
Ruth B. / Tegan And Sara Present The Con X: Covers (11)
Ryan Adams / Tegan And Sara Present The Con X: Covers (12)
Sara Bareilles / Tegan And Sara Present The Con X: Covers (13)
Shamir / Tegan And Sara Present The Con X: Covers (14)
Shura / Tegan And Sara Present The Con X: Covers (15)
Tegan and Sara / Tegan And Sara Present The Con X: Covers (16)
Trashique (GRIMES X HANA) / Tegan And Sara Present The Con X: Covers (17)
Vivek Shraya / Tegan And Sara Present The Con X: Covers (18)
––––––––––––––––––––––––––––––––––––––––

DR Peak RMS Duration Track
––––––––––––––––––––––––––––––––––––––––
DR5 -0.40 dB -6.47 dB 3:11 16-One Second (Bonus Track)
DR9 -0.61 dB -14.15 dB 2:40 09-Burn Your Life Down
DR4 -0.40 dB -7.15 dB 5:00 14-Call It Off
DR8 -0.67 dB -11.01 dB 2:42 07-Hop a Plane
DR6 -0.40 dB -9.00 dB 3:41 15-Back In Your Head (Bonus Track)
DR10 -0.77 dB -13.46 dB 4:11 10-Nineteen
DR4 -0.40 dB -8.15 dB 2:19 08-Soil, Soil
DR4 -0.40 dB -6.34 dB 2:57 02-Relief Next to Me
DR4 -0.40 dB -6.48 dB 3:21 04-Knife Going In
DR5 -0.40 dB -7.15 dB 4:41 05-Are You Ten Years Ago
DR8 -0.71 dB -11.84 dB 1:35 01-I Was Married
DR4 -0.42 dB -5.64 dB 3:11 06-Back In Your Head
DR8 -0.40 dB -11.97 dB 3:48 11-Floorplan
DR12 -0.40 dB -15.69 dB 2:35 12-Like O, Like H
DR4 -0.40 dB -7.05 dB 4:26 03-The Con
DR4 -0.40 dB -8.92 dB 3:36 18-Miami Still (Demo) [Bonus Track]
DR5 -0.40 dB -7.40 dB 3:00 13-Dark Come Soon
DR6 -0.40 dB -8.76 dB 3:05 17-I Take All the Blame (Bonus Track)
––––––––––––––––––––––––––––––––––––––––

Number of tracks: 18
Official DR value: DR6

Samplerate: 96000 Hz
Channels: 2
Bits per sample: 24
Bitrate: 2738 kbps
Codec: FLAC
================================================================================


All thanks go to the original releaser