Vadym Kholodenko - Tchaikovsky- Piano Sonatas, Opp. 37 & 80 (2021) [Official Digital Download 24/96]

Posted By: pyatak
Vadym Kholodenko - Tchaikovsky- Piano Sonatas, Opp. 37 & 80 (2021) [Official Digital Download 24/96]

Vadym Kholodenko - Tchaikovsky- Piano Sonatas, Opp. 37 & 80 (2021) [Official Digital Download 24/96]
FLAC (tracks) 24-bit/496 kHz | Front Cover | Time - 74:58 minutes | 1,02 GB
Classical | Label: harmonia mundi, Official Digital Download

After Rachmaninov, Scriabin and Prokofiev, Vadym Kholodenko now dedicates himself to Tchaikovsky and his two very rarely recorded piano sonatas on his exploratory journey through the Russian repertoire. Imaginative, lively, dreamy and with an infinite emotional breadth, he reveals their masterful construction as well as technical subtleties, which are otherwise sometimes completely sacrificed to the demonstration of virtuosity.

TRACKLIST

1. Vadym Kholodenko - I. Moderato e risoluto
2. Vadym Kholodenko - II. Andante non troppo quasi Moderato
3. Vadym Kholodenko - III. Scherzo. Allegro giocoso
4. Vadym Kholodenko - VI. Finale. Allegro vivace
5. Vadym Kholodenko - I. Allegro con fuoco
6. Vadym Kholodenko - II. Andante
7. Vadym Kholodenko - III. Scherzo. Allegro vivo
8. Vadym Kholodenko - VI. Allegro vivo
9. Vadym Kholodenko - The Seasons, Op. 37a: XI. November on the Troika. Allegro moderato
10. Vadym Kholodenko - 6 pieces, Op. 51: V. Romance. Andante cantabile

foobar2000 1.6.2 / Dynamic Range Meter 1.1.1
log date: 2021-06-11 11:46:39

––––––––––––––––––––––––––––––––––––––––
Analyzed: Vadym Kholodenko / Tchaikovsky: Piano Sonatas, Opp. 37 & 80
––––––––––––––––––––––––––––––––––––––––

DR Peak RMS Duration Track
––––––––––––––––––––––––––––––––––––––––
DR14 -1.50 dB -19.80 dB 14:15 01-I. Moderato e risoluto
DR16 -1.79 dB -25.94 dB 9:44 02-II. Andante non troppo quasi Moderato
DR15 -6.25 dB -26.79 dB 3:08 03-III. Scherzo. Allegro giocoso
DR15 -1.36 dB -20.94 dB 8:20 04-VI. Finale. Allegro vivace
DR15 -1.56 dB -24.03 dB 10:26 05-I. Allegro con fuoco
DR15 -3.40 dB -26.40 dB 5:04 06-II. Andante
DR15 -5.47 dB -27.70 dB 4:47 07-III. Scherzo. Allegro vivo
DR14 -1.35 dB -20.49 dB 8:44 08-VI. Allegro vivo
DR15 -8.09 dB -29.02 dB 3:27 09-The Seasons, Op. 37a: XI. November on the Troika. Allegro moderato
DR16 -5.11 dB -28.61 dB 7:10 10-6 pieces, Op. 51: V. Romance. Andante cantabile
––––––––––––––––––––––––––––––––––––––––

Number of tracks: 10
Official DR value: DR15

Samplerate: 96000 Hz
Channels: 2
Bits per sample: 24
Bitrate: 1874 kbps
Codec: FLAC
================================================================================



Thanks to the Original customer.