Valerie June - Pushin' Against a Stone (2013) [Official Digital Download]

Posted By: Pisulik
Valerie June - Pushin' Against a Stone (2013) [Official Digital Download]

Valerie June - Pushin' Against a Stone (2013)
FLAC (tracks) 24-bit/44.1 kHz | Time - 43:07 minutes | 464 MB
Studio Master, Official Digital Download | Artwork: Front cover

Pushin' Against a Stone, Valerie June's Concord debut, is the fruit of over a decade of dues paying by the native Tennessean after three self-released "bootleg" recordings. While her music is steeped in various musical traditions of the South blues, black and country gospel, soul, and Appalachian folk she combines them so idiosyncratically, with canny production from Kevin Agunas and Dan Auerbach, that they openly embrace the possibilities of pop. June's instantly recognizable voice is big and reedy; standing firmly out front here, it falls in a lineage line between Eartha Kitt and Erykah Badu, with hints of the young Esther Phillips and even Dolly Parton. (For examples of the latter, check the string band waltz "Tennessee Time" or the world-weary folk narrative "Twined & Twisted.") While tradition is paramount in June's songs, it includes the present, making her the antithesis of a purist. Check opener "Workin' Woman Blues," where a skittering drumkit underscores urgent acoustic guitars, a funky bassline, and a jazzy, bumping, funky trumpet (reminiscent of Blue Mitchell) in a droning, griot-like blues. "The Hour" borrows the intro and outro from "I Put a Spell on You," and points to the darkness in the lyrics of the second verse. Yet the rest of the tune is a hybrid of early-'60s girl group pop and soul, complete with three-part harmony and a swelling B-3. That intro also makes its presence felt on the title track, adorned with wailing, fuzzed-out electric guitar atop a B-3 pulse, and June's delivery moves through Ray Charles' informed soul and Thomas A. Dorsey-infused gospel in the backing chorus. The only cover here is Estil C. Ball's "Trials, Troubles, Tribulations." It's an acoustic guitar and vocal duet (with Auerbach) that comes right out of the Carter Family but sounds contemporary. "Wanna Be on Your Mind," with its Rhodes piano and June's emphatic phrasing, references Phillips' early-'70s jazz-blues style. "Somebody to Love" is a ukulele and fiddle waltz, but it is soul, treated and gospelized by June's vocal and Booker T. Jones' organ. The single "You Can't Be Told" is a swampy blues with Jimbo Mathus on lead guitar that recalls R.L. Burnside in instrumentation, but June's delivery and her four-part call-and-response backing chorus make it a hypnotic, swaying groover. "Shotgun" features the songwriter accompanied only by her own bottleneck guitar offering a murder ballad. Its presentation is so subtle and smooth, it becomes jarring when the listener takes in the lyric. Despite her slippery blend of styles, June's songs on Pushin' Against a Stone reveal there is one historical place she doesn't deviate from: the storyteller's, a Southern hallmark. Despite being a shade too long, this is a solid endeavor that asks many questions even as spins its tales.


01. Workin' Woman Blues
02. Somebody To Love
03. The Hour
04. Twined & Twisted
05. Wanna Be On Your Mind
06. Tennessee Time
07. Pushin' Against a Stone
08. Trials, Troubles, Tribulations
09. You Can't Be Told
10. Shotgun
11. On My Way
12. Somebody To Love (Acoustic Version)

foobar2000 1.3.7 / Dynamic Range Meter 1.1.1
log date: 2018-02-07 02:46:26

Analyzed: Valerie June / Pushin' Against a Stone

DR Peak RMS Duration Track
DR7 0.00 dB -8.97 dB 3:09 01-Workin' Woman Blues
DR9 -0.11 dB -12.61 dB 3:35 02-Somebody To Love
DR8 -0.08 dB -10.12 dB 3:53 03-The Hour
DR11 -0.03 dB -14.30 dB 3:15 04-Twined & Twisted
DR9 0.00 dB -10.22 dB 3:58 05-Wanna Be On Your Mind
DR9 0.00 dB -11.06 dB 3:15 06-Tennessee Time
DR9 0.00 dB -11.41 dB 5:17 07-Pushin' Against a Stone
DR10 -0.18 dB -11.80 dB 3:05 08-Trials, Troubles, Tribulations
DR7 0.00 dB -8.53 dB 3:18 09-You Can't Be Told
DR11 -0.14 dB -14.65 dB 3:09 10-Shotgun
DR8 -0.11 dB -10.21 dB 3:30 11-On My Way
DR11 -0.05 dB -13.56 dB 3:43 12-Somebody To Love (Acoustic Version)

Number of tracks: 12
Official DR value: DR9

Samplerate: 44100 Hz
Channels: 2
Bits per sample: 24
Bitrate: 1440 kbps
Codec: FLAC

All thanks go to the original releaser