Vittorio Grigolo - The Romantic Hero (2014) [Official Digital Download 24/96]

Posted By: SERTiL
Vittorio Grigolo - The Romantic Hero (2014) [Official Digital Download 24/96]

Vittorio Grigolo - The Romantic Hero (2014)
FLAC (tracks) 24-bit/96 kHz | Time - 57:24 minutes | 1.13 GB
Studio Master, Official Digital Download | Artwork: Digital Booklet

Established as one of the world’s leading Italian tenors, an integral vehicle in Vittorio’s operatic trajectory has been French opera. His extraordinary international breakthrough came in the role of Des Grieux in Massenet’s Manon alongside Anna Netrebko at the Royal Opera House in 2010. He astounded the audience and critics:

‘The birth of a star’ - EVENING STANDARD

‘The most sensational debut to be heard at Covent Garden for some time’ - THE GUARDIAN

The following year critics applauded his return to the Royal Opera House London to sing the title role in Faust alongside a stellar cast including Angela Gheorghiu, René Pape and Dmitri Hvorostovsky.

His previous professional appearances in key French repertoire also include performances as Romeo in Romeo & Juliette at both La Scala and Los Angeles Opera (both in 2011) and the title role in Zürich Opera House’s production of Les Contes d’Hoffmann that same year.

To the famous heroic arias such as Romeo’s “L’amour, l’amour…Ah, lève-toi soleil”, Des Grieux’s “ah fuyez, douce image” and Faust’s “Salut, demeure chaste et pure”, Vittorio has also added lesser-known arias from La juive , l’Africaine and Le Cid. All roles meet the description of the romantic hero, full of love, passion, and jealousy.

As Vittorio explains:

“In this very special album, my first departure into the French repertoire, I wanted to look back on and explore the kind of figure that is the true romantic hero. It’s the hero that makes me feel alive when I am on stage. I chose the French hero because each aria is special for me in a certain way, and reveals something hidden inside me. For example, the love in Roméo et Juliette is very intense, quite unlike anything today, when everything is so fast. Is it still possible to love like this, to know this kind of feeling?

Manon, Les Contes d’Hoffmann and Le Cid –the roles in these works encompass every aspect of the French hero. Again that is part of the reason for my choice. The Italian way of singing is native to me. But sometimes in life we change course to follow a sign that is not the one of our birth; instead we go forward in the ascendant. The French hero is my ascendant. Though I started learning to sing using the Italian bel canto technique, I have now got to the point where I am conscious of what I can express in, what I have to say about, the French hero. And that is partly because of my natural temperament. When I was a kid, I was always the hero, I was too much, I had to rein myself in; now I don’t need to, because I can use that aspect of my personality on stage in these marvellous French operas and everybody loves it. What was excessive then in a child works well now for the stage.”


Tracklist:
01. Werther, Act III: Pourquoi me réveiller
02. Romeo et Juliette, Act II: L'amour, l'amour…Ah, lève-toi soleil
03. Carmen, Act II: La fleur que tu m'avais jetée
04. Faust, Acte III, scène 4: "Quel trouble inconnu… Salut, demeure chaste et pure"
05. Manon, Acte II: "En fermant les yeux… C'est un rêve"
06. Manon, Acte III, scène 2: "Je suis seul… ah fuyez, douce image"
07. L'Africaine, Acte IV: "Pays merveilleux… O Paradis"
08. La Juive, Act IV: Rachel, quand du seigneur
09. Les Contes d'Hoffmann, Epilogue, scène 2: "O Dieu de quelle ivresse"
10. Romeo et Juliette, Acte IV: "Va! Je t'ai pardonné… Nuit d'Hyménée"
11. Le Cid, Acte II, scène 3: "Ah! Tout est bien fini… Oh Souverain, o Juge, o Père"
12. Romeo et Juliette, Acte V: "C'est là! Salut! Tombeau! Sombre et silencieux

Composers:
Bizet, Georges (1838-75)
Gounod, Charles François (1818-93)
Halévy, Jacques (1799-1862)
Massenet, Jules Emile Frederic (1842-1912)
Meyerbeer, Giacomo (1791-1864)
Offenbach, Jacques (1819-80)

foobar2000 1.3.7 / Dynamic Range Meter 1.1.1
log date: 2018-02-03 20:22:55

––––––––––––––––––––––––––––––––––––––––
Analyzed: Vittorio Grigolo / The Romantic Hero
––––––––––––––––––––––––––––––––––––––––

DR Peak RMS Duration Track
––––––––––––––––––––––––––––––––––––––––
DR12 -1.50 dB -18.71 dB 2:53 01-Werther, Act III: Pourquoi me réveiller
DR13 -1.08 dB -19.23 dB 4:18 02-Romeo et Juliette, Act II: L'amour, l'amour…Ah, lève-toi soleil
DR12 -2.80 dB -21.85 dB 3:53 03-Carmen, Act II: La fleur que tu m'avais jetée
DR12 -0.90 dB -18.50 dB 5:49 04-Faust, Acte III, scène 4: "Quel trouble inconnu… Salut, demeure chaste et pure"
DR15 -1.47 dB -22.65 dB 3:44 05-Manon, Acte II: "En fermant les yeux… C'est un rêve"
DR12 -0.20 dB -17.22 dB 5:02 06-Manon, Acte III, scène 2: "Je suis seul… ah fuyez, douce image"
DR12 -0.10 dB -18.76 dB 3:09 07-L'Africaine, Acte IV: "Pays merveilleux… O Paradis"
DR12 -0.10 dB -17.71 dB 5:37 08-La Juive, Act IV: Rachel, quand du seigneur
DR11 -0.10 dB -16.83 dB 2:21 09-Les Contes d'Hoffmann, Epilogue, scène 2: "O Dieu de quelle ivresse"
DR11 -0.20 dB -15.74 dB 10:38 10-Romeo et Juliette, Acte IV: "Va! Je t'ai pardonné… Nuit d'Hyménée"
DR10 -0.20 dB -16.02 dB 4:48 11-Le Cid, Acte II, scène 3: "Ah! Tout est bien fini… Oh Souverain, o Juge, o Père"
DR12 -0.10 dB -16.46 dB 5:16 12-Romeo et Juliette, Acte V: "C'est là! Salut! Tombeau! Sombre et silencieux"
––––––––––––––––––––––––––––––––––––––––

Number of tracks: 12
Official DR value: DR12

Samplerate: 96000 Hz
Channels: 2
Bits per sample: 24
Bitrate: 2844 kbps
Codec: FLAC
================================================================================


Thanks to the Original customer.