Subcategories

Carlos Vives – Clásicos De La Provincia (1993 LP/FLAC) In 24bit/96kHz & 16bit/44kHz

Posted By: Fran Solo
Carlos Vives – Clásicos De La Provincia (1993 LP/FLAC) In 24bit/96kHz & 16bit/44kHz

Carlos Vives – Clásicos De La Provincia
Vinyl | LOG | CUE | FLAC | Tags | Full LP Cover (1:1)
24bit/96kHz: 1,03gb & 16bit/44kHz: 324mb
Genre: Caribbean-Pop | Label: Sonolux / 01013101937 | Release: 1993
Carlos Vives – Clásicos De La Provincia (1993 LP/FLAC) In 24bit/96kHz & 16bit/44kHz

Carlos Vives – Clásicos De La Provincia (1993 LP/FLAC) In 24bit/96kHz & 16bit/44kHz

Carlos Vives – Clásicos De La Provincia (1993 LP/FLAC) In 24bit/96kHz & 16bit/44kHz

Side 1
1. La gota fría
2- Amor sensible
3- Matilde Lina
4- La hamaca grande
5- La cañaguatera
6- Pedazo de acordeón
Side 2
7- Alicia adorada
8- El cantor de Fonseca
9- La tijera
10- Compae Chipuco
11. Lirio rojo
12. Honda herida
13. Contestación a la brasilera (Fragmento)

X Lossless Decoder version 20121013 (142.0)

XLD ReplayGain scanning logfile

TOC of the selected file
Track | Start | Length | Start sector | End sector
––––––––––––––––––––––––––––-
1 | 00:00:00 | 03:35:40 | 0 | 16164
2 | 03:35:40 | 04:26:13 | 16165 | 36127
3 | 08:01:53 | 03:57:39 | 36128 | 53941
4 | 11:59:17 | 03:06:67 | 53942 | 67958
5 | 15:06:09 | 03:12:67 | 67959 | 82425
6 | 18:19:01 | 04:08:40 | 82426 | 101065
7 | 22:27:41 | 04:15:69 | 101066 | 120259
8 | 26:43:35 | 03:08:47 | 120260 | 134406
9 | 29:52:07 | 03:29:74 | 134407 | 150155
10 | 33:22:06 | 03:17:51 | 150156 | 164981
11 | 36:39:57 | 02:49:68 | 164982 | 177724
12 | 39:29:50 | 03:05:11 | 177725 | 191610
13 | 42:34:61 | 00:51:65 | 191611 | 195500

All Tracks
Album gain : 1.31 dB
Peak : 0.877014
CRC32 hash : 36F5FFBC
CRC32 hash (skip zero) : 68C274E5

Track 01
Track gain : 1.08 dB
Peak : 0.877014
CRC32 hash : 0478C83A
CRC32 hash (skip zero) : 028E19C6

Track 02
Track gain : 1.27 dB
Peak : 0.693512
CRC32 hash : 3D0DF4A0
CRC32 hash (skip zero) : 1F07BBED

Track 03
Track gain : 0.59 dB
Peak : 0.826202
CRC32 hash : 73A9D9C1
CRC32 hash (skip zero) : CC1A3312

Track 04
Track gain : 1.21 dB
Peak : 0.749237
CRC32 hash : 45207B3C
CRC32 hash (skip zero) : 1185812D

Track 05
Track gain : 0.99 dB
Peak : 0.576599
CRC32 hash : E5AF88B5
CRC32 hash (skip zero) : 7F68B182

Track 06
Track gain : 2.03 dB
Peak : 0.599762
CRC32 hash : C88C5F09
CRC32 hash (skip zero) : F9D96B47

Track 07
Track gain : 1.46 dB
Peak : 0.826569
CRC32 hash : DB4358D0
CRC32 hash (skip zero) : 5BC506FE

Track 08
Track gain : 1.12 dB
Peak : 0.743073
CRC32 hash : 7F63EDDC
CRC32 hash (skip zero) : 42FB35A7

Track 09
Track gain : 1.45 dB
Peak : 0.707458
CRC32 hash : 0DD94731
CRC32 hash (skip zero) : E7593A23

Track 10
Track gain : 2.25 dB
Peak : 0.657257
CRC32 hash : BA9C366D
CRC32 hash (skip zero) : DB3C018B

Track 11
Track gain : 1.36 dB
Peak : 0.670197
CRC32 hash : 412AB153
CRC32 hash (skip zero) : A3F1E4F1

Track 12
Track gain : 1.40 dB
Peak : 0.732849
CRC32 hash : 9F4FD4F3
CRC32 hash (skip zero) : 5FE7CF01

Track 13
Track gain : 3.60 dB
Peak : 0.473969
CRC32 hash : BA841DE7
CRC32 hash (skip zero) : 5B390D02

End of status report

–––––––––––––––––––––––––––––––––––––––––––––––
Analyzed folder: Carlos Vives - Clasicos De La Provincia (LP)
–––––––––––––––––––––––––––––––––––––––––––––––
DR Peak RMS Filename
–––––––––––––––––––––––––––––––––––––––––––––––

DR15 -1.90 dB -18.14 dB 01 Carlos Vives - LADO A- La gota fria.wav
DR13 -3.34 dB -19.42 dB 02 Carlos Vives - Amor sensible.wav
DR15 -1.81 dB -19.23 dB 03 Carlos Vives - Matilde Lina.wav
DR15 -2.88 dB -19.52 dB 04 Carlos Vives - La hamaca grande.wav
DR13 -5.02 dB -19.77 dB 05 Carlos Vives - La canhaguatera.wav
DR14 -4.64 dB -20.12 dB 06 Carlos Vives - Pedazo de acordeon.wav
DR16 -1.68 dB -18.78 dB 07 Carlos Vives - LADO B- Alicia adorada.wav
DR14 -2.94 dB -19.04 dB 08 Carlos Vives - El cantor de Fonseca.wav
DR14 -3.54 dB -19.17 dB 09 Carlos Vives - La tijera.wav
DR15 -3.70 dB -20.60 dB 10 Carlos Vives - Compae Chipuco.wav
DR14 -4.11 dB -19.36 dB 11 Carlos Vives - Lirio rojo.wav
DR14 -3.75 dB -20.18 dB 12 Carlos Vives - Honda herida.wav
DR14 -6.57 dB -25.01 dB 13 Carlos Vives - Contestacion a la brasilera (Fragmento).wav
–––––––––––––––––––––––––––––––––––––––––––––––

Number of files: 13
Official DR value: DR14

==============================================================================================

In 1993, backed by the band “La Provincia”, Vives released the album “Clásicos de la Provincia” in which he started fusing Vallenato with rock,
pop and other Caribbean Colombian ethnic rhythms. This fusion scandalized Vallenato purists. This style of vallenato was a huge success not only in Colombia but all over Latin countries, and the albums’ lead single, La Gota Fría, became a hit all over Latin America. Clásicos de la Provincia, won the Billboard Latin Music Awards Best Album and would become a timeless classic in Colombian and Latin American music, introducing Vallenato to both Colombia and the rest of the world.
wikipedia.org
It is my pleasure to show unknown music, thanks to the generosity of some taxpayers who have sent me their LPs. This is how I leave on Wednesday to present these LPs that were not in my musical direction. Enjoy them!
Spanish.
Es un placer para mi mostrar música desconocida, gracias a la generosidad de algunos contribuyentes que me han enviado sus LPs. Así que dejo el día miércoles para presentar estos discos que no estaban en mi dirección musical. ¡Que los disfruten!
Fran Solo, MMXII

All thanks to valanion, owner of this LP
Welcome to the Dark Side of the Vinyl

Equipment
Vinyl rip, mastered and audio correction: Fran Solo
Direct Drive Turntable: Marantz 6170
Cartridge: SHURE M97xE (audiophile)
Capture Equipment: MacPro 2x2 GHz Dual-Core Intel Xeon, integrated Audio
Soundcard: Intel High Definition Sound
Preamp: Bellari VP130 Mm Tube Phono Preamplifier
Edition: Adobe Audition CS 5.5 & Amadeus PRO - xACT & XLD (lossless)
Redbook Conversion: Izotope RX Advanced
Silences deletion?: Yes
Normalization?: No
Clickrepair?: Of course
Password?: WITHOUT PASSWORD
Scans Full & Corrected LP Cover, 1:1
(All included in 300dpi: front/back - gatefold outside/inside - booklet - insert - envelope - labels, etc.): Fran Solo


Vinyl LOG/ CUE/ FLAC/ High Definition Cover - 1.03gb RAR & 324mb ZIP:
FilePost 2496
Part 1
Part 2
Part 3

MirrorCreator (RS-HF-UpL) 2496
Part 1
Part 2
Part 3

1644