Subcategories

Carlos Vives – La Tierra Del Olvido (1995 LP/FLAC) In 24bit/96kHz & 16bit/44kHz

Posted By: Fran Solo
Carlos Vives – La Tierra Del Olvido (1995 LP/FLAC) In 24bit/96kHz & 16bit/44kHz

Carlos Vives – La Tierra Del Olvido (Featuring The Smash Hit “Pa’ Mayte”)
Vinyl | LOG | CUE | FLAC | Tags | Full LP Cover (1:1)
24bit/96kHz: 1.01gb & 16bit/44kHz: 305mb
Genre: Caribbean-Pop | Label: Sonolux / 01013102038 | Release: 1995
Carlos Vives – La Tierra Del Olvido (1995 LP/FLAC) In 24bit/96kHz & 16bit/44kHz

Carlos Vives – La Tierra Del Olvido (1995 LP/FLAC) In 24bit/96kHz & 16bit/44kHz

Carlos Vives – La Tierra Del Olvido (1995 LP/FLAC) In 24bit/96kHz & 16bit/44kHz

Side 1
1. Pa’ Mayte
2. Fidelina
3. La Cachucha Bacana
4. Zoila
5. Ella
6. Jam En Jukumey
Side 2
1. La Tierra Del Olvido
2. Rosa
3. Diosa Coronada
4. Agua
5. La Puya Puya

X Lossless Decoder version 20121013 (142.0)

XLD ReplayGain scanning logfile

TOC of the selected file
Track | Start | Length | Start sector | End sector
––––––––––––––––––––––––––––-
1 | 00:00:00 | 03:09:39 | 0 | 14213
2 | 03:09:39 | 04:23:26 | 14214 | 33964
3 | 07:32:65 | 04:22:08 | 33965 | 53622
4 | 11:54:73 | 04:25:27 | 53623 | 73524
5 | 16:20:25 | 03:45:50 | 73525 | 90449
6 | 20:06:00 | 01:32:70 | 90450 | 97419
7 | 21:38:70 | 04:24:19 | 97420 | 117238
8 | 26:03:14 | 04:12:30 | 117239 | 136168
9 | 30:15:44 | 04:13:19 | 136169 | 155162
10 | 34:28:63 | 03:51:40 | 155163 | 172527
11 | 38:20:28 | 05:03:61 | 172528 | 195313

All Tracks
Album gain : 1.90 dB
Peak : 0.889587
CRC32 hash : D7BE51F0
CRC32 hash (skip zero) : 1A570144

Track 01
Track gain : 1.05 dB
Peak : 0.788940
CRC32 hash : 260880C3
CRC32 hash (skip zero) : 24047F1B

Track 02
Track gain : 3.26 dB
Peak : 0.688965
CRC32 hash : D657404F
CRC32 hash (skip zero) : 4FF1328F

Track 03
Track gain : 0.83 dB
Peak : 0.881287
CRC32 hash : 2D15A6FF
CRC32 hash (skip zero) : 7C0906E4

Track 04
Track gain : 1.98 dB
Peak : 0.717285
CRC32 hash : AC30A1BA
CRC32 hash (skip zero) : AA21BAE5

Track 05
Track gain : 2.53 dB
Peak : 0.685120
CRC32 hash : 2055F4C2
CRC32 hash (skip zero) : 6B1E5F47

Track 06
Track gain : 5.68 dB
Peak : 0.509857
CRC32 hash : E2447D0F
CRC32 hash (skip zero) : 052F0A77

Track 07
Track gain : 1.73 dB
Peak : 0.724762
CRC32 hash : A7B61398
CRC32 hash (skip zero) : 89F35B1D

Track 08
Track gain : 2.62 dB
Peak : 0.758972
CRC32 hash : D19E37B2
CRC32 hash (skip zero) : CF85DB37

Track 09
Track gain : 2.17 dB
Peak : 0.787933
CRC32 hash : D5C8C1B0
CRC32 hash (skip zero) : DE3D5286

Track 10
Track gain : 1.61 dB
Peak : 0.889587
CRC32 hash : CF0EC0E5
CRC32 hash (skip zero) : C6FD20D7

Track 11
Track gain : 1.82 dB
Peak : 0.790710
CRC32 hash : E893ABE1
CRC32 hash (skip zero) : A7350930

End of status report

———————————————————————————————-
Analyzed folder: Carlos Vives – La Tierra Del Olvido (LP)
———————————————————————————————-
DR Peak RMS Filename
———————————————————————————————-

DR15 -2.72 dB -19.22 dB 01 Carlos Vives – LADO A- Pa’ Mayte.wav
DR16 -3.72 dB -21.83 dB 02 Carlos Vives – Fidelina.wav
DR16 -1.72 dB -20.32 dB 03 Carlos Vives – La Cachucha Bacana.wav
DR17 -2.90 dB -20.68 dB 04 Carlos Vives – Zoila.wav
DR15 -3.46 dB -21.73 dB 05 Carlos Vives – Ella.wav
DR16 -6.12 dB -24.45 dB 06 Carlos Vives – Jam En Jukumey.wav
DR15 -2.82 dB -20.14 dB 07 Carlos Vives – LADO B- La Tierra Del Olvido.wav
DR16 -3.03 dB -21.54 dB 08 Carlos Vives – Rosa.wav
DR16 -2.14 dB -20.45 dB 09 Carlos Vives – Diosa Coronada.wav
DR16 -1.95 dB -21.24 dB 10 Carlos Vives – Agua.wav
DR16 -2.94 dB -19.96 dB 11 Carlos Vives – La Puya Puya.wav
———————————————————————————————-

Number of files: 11
Official DR value: DR16

==============================================================================================

"La Tierra del Olvido" would mark a further step in Vives’ desire to fusion rock, funk and pop music with traditional Colombian genres. The album gave Vives classic hits such as the title track, and the up-tempo opening track "Pa’ Mayte".
wikipedia.org
It is my pleasure to show unknown music, thanks to the generosity of some taxpayers who have sent me their LPs. This is how I leave on Wednesday to present these LPs that were not in my musical direction. Enjoy them!
Spanish.
Es un placer para mi mostrar música desconocida, gracias a la generosidad de algunos contribuyentes que me han enviado sus LPs. Así que dejo el día miércoles para presentar estos discos que no estaban en mi dirección musical. ¡Que los disfruten!
Fran Solo, MMXII

All thanks to valanion, owner of this LP
Welcome to the Dark Side of the Vinyl

Equipment
Vinyl rip, mastered and audio correction: Fran Solo
Direct Drive Turntable: Marantz 6170
Cartridge: SHURE M97xE (audiophile)
Capture Equipment: MacPro 2x2 GHz Dual-Core Intel Xeon, integrated Audio
Soundcard: Intel High Definition Sound
Preamp: Bellari VP130 Mm Tube Phono Preamplifier
Edition: Adobe Audition CS 5.5 & Amadeus PRO - xACT & XLD (lossless)
Redbook Conversion: Izotope RX Advanced
Silences deletion?: Yes
Normalization?: No
Clickrepair?: Of course
Password?: WITHOUT PASSWORD
Scans Full & Corrected LP Cover, 1:1
(All included in 300dpi: front/back - gatefold outside/inside - booklet - insert - envelope - labels, etc.): Fran Solo


Vinyl LOG/ CUE/ FLAC/ High Definition Cover - 1.01gb RAR & 305mb ZIP:
FilePost 2496
Part 1
Part 2
Part 3

MirrorCreator (RS-HF-UpL) 2496
Part 1
Part 2
Part 3

1644