Bruce Springsteen - We Shall Overcome (The Seeger Sessions) [American Land Edition] (1998/2006/2018) [24/44.1]

Posted By: SERTiL
Bruce Springsteen - We Shall Overcome (The Seeger Sessions) [American Land Edition] (1998/2006/2018) [24/44.1]

Bruce Springsteen - We Shall Overcome (The Seeger Sessions) [American Land Edition] (1998/2006/2018)
FLAC (tracks) 24-bit/44.1 kHz | Time - 77:40 minutes | 902 MB
Studio Master, Official Digital Download | Artwork: Front Cover

The premise was simple. Bruce Springsteen invites a dozen or so New York City musicians–packing banjos, fiddles, accordions and the like–to his New Jersey farmhouse for a three-day hootenanny, and tape is rolling. The results are sublime, his 21st album featuring their versions of songs harvested from Springsteen's dog-eared LPs by Pete Seeger. Not all written by Seeger, the songs are how the American folk icon interpreted them, and these organic recordings, with no rehearsals or overdubs, pay tribute with the simplicity and spontaneity he intended. It's not hard to link Springsteen's dissatisfaction with American politics to the protest song "We Shall Overcome" or even the Irish ballad "Mrs. McGrath," where he alters the lyrics to read, "I'd rather have my son as he used to be/Than the King of America and his whole navy." But the beauty of these Seeger Sessions are pieces that underscore the mood of the bandleader, which borders on down-home amusement: the bluegrass outlaw ballad "Jesse James," the Dylanesque "Pay Me My Money Down" and the euphoric "Jacob's Ladder," a gumbo-and-whiskey-fueled romp that could pass for the closing hymn at the Church of Asbury Park. –Scott Holter

Tracklist:
01. Old Dan Tucker
02. Jesse James (Just Ask)
03. Mrs. McGrath
04. O Mary Don't You Weep
05. John Henry
06. Erie Canal
07. Jacob's Ladder (Excerpt)
08. My Oklahoma Home
09. Eyes on the Prize
10. Shenandoah
11. Pay Me My Money Down
12. We Shall Overcome
13. Froggie Went a Courtin'
14. Buffalo Gals
15. How Can I Keep from Singing
16. How Can a Poor Man Stand Such Times and Live (Bruce Springsteen Version)
17. Bring 'Em Home
18. American Land

foobar2000 1.3.7 / Dynamic Range Meter 1.1.1
log date: 2018-03-21 16:57:57

––––––––––––––––––––––––––––––––––––––––
Analyzed: Bruce Springsteen / We Shall Overcome (The Seeger Sessions) [American Land Edition]
––––––––––––––––––––––––––––––––––––––––

DR Peak RMS Duration Track
––––––––––––––––––––––––––––––––––––––––
DR8 -1.20 dB -11.09 dB 2:31 01-Old Dan Tucker
DR7 -1.20 dB -9.99 dB 3:48 02-Jesse James (Just Ask)
DR7 -1.20 dB -11.42 dB 4:20 03-Mrs. McGrath
DR8 -1.20 dB -10.94 dB 6:05 04-O Mary Don't You Weep
DR7 -1.20 dB -9.87 dB 5:07 05-John Henry
DR7 -1.20 dB -11.59 dB 4:03 06-Erie Canal
DR7 -1.20 dB -9.42 dB 4:28 07-Jacob's Ladder (Excerpt)
DR8 -1.20 dB -10.45 dB 6:04 08-My Oklahoma Home
DR7 -1.20 dB -11.37 dB 5:17 09-Eyes on the Prize
DR10 -1.20 dB -14.72 dB 4:53 10-Shenandoah
DR7 -1.20 dB -10.13 dB 4:32 11-Pay Me My Money Down
DR8 -1.20 dB -11.27 dB 4:53 12-We Shall Overcome
DR9 -1.20 dB -12.27 dB 4:36 13-Froggie Went a Courtin'
DR6 -1.20 dB -9.05 dB 3:12 14-Buffalo Gals
DR8 -1.27 dB -13.52 dB 2:20 15-How Can I Keep from Singing
DR8 -1.20 dB -10.56 dB 3:23 16-How Can a Poor Man Stand Such Times and Live (Bruce Springsteen Version)
DR7 -1.20 dB -10.80 dB 3:36 17-Bring 'Em Home
DR7 -1.20 dB -9.87 dB 4:42 18-American Land
––––––––––––––––––––––––––––––––––––––––

Number of tracks: 18
Official DR value: DR8

Samplerate: 44100 Hz
Channels: 2
Bits per sample: 24
Bitrate: 1725 kbps
Codec: FLAC
================================================================================


Thanks to the Original customer.