Wilhelm Backhaus - Beethoven - Piano Sonatas Nos. 1, 2, 3 & 4 (Remastered) (2020) [Official Digital Download 24/96]

Posted By: pyatak
Wilhelm Backhaus - Beethoven - Piano Sonatas Nos. 1, 2, 3 & 4 (Remastered) (2020) [Official Digital Download 24/96]

Wilhelm Backhaus - Beethoven - Piano Sonatas Nos. 1, 2, 3 & 4 (Remastered) (2020) [Official Digital Download 24/96]
FLAC (tracks) 24-bit/96 kHz | Front Cover | Time - 01:16:24 minutes | 1,66 GB
Classical | Label: Decca Music Group Ltd., Official Digital Download

Wilhelm Backhaus, born 1884 in Leipzig, studied with Eugen d'Albert in Frankfurt. After his successful 1900 debut in London, Wilhelm Backhaus - promoted by such conductors as Muck, Nikisch and Richter - made a career in Europe. In the course of his life he gave more than 4,000 concerts. As of 1908 he taped records, most of which were on C. Bechstein. In 1912, Backhaus debuted in the USA. In 1929 Wilhelm Backhaus played in Paris and Vienna for the first time all 32 Beethoven Sonatas, for whose interpretation he became famous. Backhaus died 1969 in Kärnten. "With joy Wilhelm Backhaus admits to being an enthusiastic fan of the wonderful Bechstein grand piano", the pianist wrote in September 1925.


TRACKLIST

1. Wilhelm Backhaus - Beethoven: Piano Sonata No. 1 in F Minor, Op. 2 No. 1: 1. Allegro
2. Wilhelm Backhaus - Beethoven: Piano Sonata No. 1 in F Minor, Op. 2 No. 1: 2. Adagio
3. Wilhelm Backhaus - Beethoven: Piano Sonata No. 1 in F Minor, Op. 2 No. 1: 3. Menuetto. Allegretto
4. Wilhelm Backhaus - Beethoven: Piano Sonata No. 1 in F Minor, Op. 2 No. 1: 4. Prestissimo
5. Wilhelm Backhaus - Beethoven: Piano Sonata No. 2 in A Major, Op. 2 No. 2: 1. Allegro vivace
6. Wilhelm Backhaus - Beethoven: Piano Sonata No. 2 in A Major, Op. 2 No. 2: 2. Largo appassionato
7. Wilhelm Backhaus - Beethoven: Piano Sonata No. 2 in A Major, Op. 2 No. 2: 3. Scherzo. Allegretto
8. Wilhelm Backhaus - Beethoven: Piano Sonata No. 2 in A Major, Op. 2 No. 2: 4. Rondo. Grazioso
9. Wilhelm Backhaus - Beethoven: Piano Sonata No. 3 in C Major, Op. 2 No. 3: 1. Allegro con brio
10. Wilhelm Backhaus - Beethoven: Piano Sonata No. 3 in C Major, Op. 2 No. 3: 2. Adagio
11. Wilhelm Backhaus - Beethoven: Piano Sonata No. 3 in C Major, Op. 2 No. 3: 3. Scherzo. Allegro
12. Wilhelm Backhaus - Beethoven: Piano Sonata No. 3 in C Major, Op. 2 No. 3: 4. Allegro assai
13. Wilhelm Backhaus - Beethoven: Piano Sonata No. 4 in E-Flat Major, Op. 7: 1. Allegro molto e con brio
14. Wilhelm Backhaus - Beethoven: Piano Sonata No. 4 in E-Flat Major, Op. 7: 2. Largo, con gran espressione
15. Wilhelm Backhaus - Beethoven: Piano Sonata No. 4 in E-Flat Major, Op. 7: 3. Allegro
16. Wilhelm Backhaus - Beethoven: Piano Sonata No. 4 in E-Flat Major, Op. 7: 4. Rondo. Poco allegretto e grazioso

foobar2000 1.3.16 / Dynamic Range Meter 1.1.1
log date: 2020-05-23 11:31:23

––––––––––––––––––––––––––––––––––––––––
Analyzed: Wilhelm Backhaus / Beethoven: Piano Sonatas Nos. 1, 2, 3 & 4 (Remastered)
––––––––––––––––––––––––––––––––––––––––

DR Peak RMS Duration Track
––––––––––––––––––––––––––––––––––––––––
DR14 -1.48 dB -19.18 dB 3:02 01-Beethoven: Piano Sonata No. 1 in F Minor, Op. 2 No. 1: 1. Allegro
DR16 -5.74 dB -25.18 dB 3:58 02-Beethoven: Piano Sonata No. 1 in F Minor, Op. 2 No. 1: 2. Adagio
DR11 -3.29 dB -19.54 dB 2:25 03-Beethoven: Piano Sonata No. 1 in F Minor, Op. 2 No. 1: 3. Menuetto. Allegretto
DR12 -2.22 dB -17.79 dB 3:51 04-Beethoven: Piano Sonata No. 1 in F Minor, Op. 2 No. 1: 4. Prestissimo
DR13 -0.91 dB -17.88 dB 4:55 05-Beethoven: Piano Sonata No. 2 in A Major, Op. 2 No. 2: 1. Allegro vivace
DR15 -1.60 dB -22.48 dB 5:01 06-Beethoven: Piano Sonata No. 2 in A Major, Op. 2 No. 2: 2. Largo appassionato
DR11 -3.00 dB -19.44 dB 2:48 07-Beethoven: Piano Sonata No. 2 in A Major, Op. 2 No. 2: 3. Scherzo. Allegretto
DR12 -3.19 dB -19.87 dB 6:22 08-Beethoven: Piano Sonata No. 2 in A Major, Op. 2 No. 2: 4. Rondo. Grazioso
DR12 -2.19 dB -17.81 dB 7:23 09-Beethoven: Piano Sonata No. 3 in C Major, Op. 2 No. 3: 1. Allegro con brio
DR16 -4.92 dB -26.03 dB 5:58 10-Beethoven: Piano Sonata No. 3 in C Major, Op. 2 No. 3: 2. Adagio
DR12 -0.19 dB -17.17 dB 3:05 11-Beethoven: Piano Sonata No. 3 in C Major, Op. 2 No. 3: 3. Scherzo. Allegro
DR13 0.00 dB -17.65 dB 5:31 12-Beethoven: Piano Sonata No. 3 in C Major, Op. 2 No. 3: 4. Allegro assai
DR13 -2.46 dB -18.97 dB 6:20 13-Beethoven: Piano Sonata No. 4 in E-Flat Major, Op. 7: 1. Allegro molto e con brio
DR15 -2.18 dB -24.88 dB 6:14 14-Beethoven: Piano Sonata No. 4 in E-Flat Major, Op. 7: 2. Largo, con gran espressione
DR12 -4.02 dB -21.95 dB 3:49 15-Beethoven: Piano Sonata No. 4 in E-Flat Major, Op. 7: 3. Allegro
DR13 -2.64 dB -20.61 dB 6:34 16-Beethoven: Piano Sonata No. 4 in E-Flat Major, Op. 7: 4. Rondo. Poco allegretto e grazioso
––––––––––––––––––––––––––––––––––––––––

Number of tracks: 16
Official DR value: DR13

Samplerate: 96000 Hz
Channels: 2
Bits per sample: 24
Bitrate: 3067 kbps
Codec: FLAC
================================================================================



Thanks to the Original customer.