Wilson Pickett - The Best Of Wilson Pickett, Volume II (1971/2012) [Official Digital Download 24/96]

Posted By: Pisulik
Wilson Pickett - The Best Of Wilson Pickett, Volume II (1971/2012) [Official Digital Download 24/96]

Wilson Pickett - The Best Of Wilson Pickett, Volume II (1971/2012)
FLAC (tracks) 24-bit/96 kHz | Time - 44:00 minutes | 952 MB
Studio Master, Official Digital Download | Artwork: Front cover

Of the major '60s soul stars, Wilson Pickett was one of the roughest and sweatiest, working up some of the decade's hottest dancefloor grooves on hits. Although he tends to be held in somewhat lower esteem than more versatile talents like Otis Redding and Aretha Franklin, he is often a preferred alternative of fans who like their soul on the rawer side. He also did a good deal to establish the sound of Southern soul with his early hits, which were often written and recorded with the cream of the session musicians in Memphis and Muscle Shoals.

Tracklist:

01. Don't Let The Green Grass Fool You
02. Sugar Sugar
03. Get Me Back On Time, Engine Number 9 (Part 1/Part)
04. I'm A Midnight Mover
05. A Man And A Half
06. Born To Be Wild
07. She's Lookin' Good
08. I'm In Love
09. Hey Joe
10. Cole, Cooke & Redding
11. Hey Jude
12. You Keep Me Hangin' On
13. I Found A True Love

foobar2000 1.3.7 / Dynamic Range Meter 1.1.1
log date: 2018-01-07 10:33:11

––––––––––––––––––––––––––––––––––––––––
Analyzed: Wilson Pickett / The Best Of Wilson Pickett, Volume II
––––––––––––––––––––––––––––––––––––––––

DR Peak RMS Duration Track
––––––––––––––––––––––––––––––––––––––––
DR14 -1.37 dB -17.94 dB 2:51 01-Don't Let The Green Grass Fool You
DR13 -4.11 dB -19.54 dB 3:00 02-Sugar Sugar
DR15 -0.90 dB -18.67 dB 6:28 03-Get Me Back On Time, Engine Number 9 (Part 1/Part)
DR13 -0.02 dB -16.90 dB 2:28 04-I'm A Midnight Mover
DR13 -0.76 dB -16.23 dB 2:52 05-A Man And A Half
DR14 -0.97 dB -17.47 dB 2:50 06-Born To Be Wild
DR13 -4.47 dB -20.16 dB 2:23 07-She's Lookin' Good
DR13 -3.73 dB -19.63 dB 2:33 08-I'm In Love
DR13 -2.89 dB -19.20 dB 3:06 09-Hey Joe
DR13 -0.64 dB -19.05 dB 3:58 10-Cole, Cooke & Redding
DR14 -2.37 dB -20.15 dB 4:08 11-Hey Jude
DR13 -4.79 dB -22.48 dB 5:00 12-You Keep Me Hangin' On
DR13 -1.23 dB -19.15 dB 2:23 13-I Found A True Love
––––––––––––––––––––––––––––––––––––––––

Number of tracks: 13
Official DR value: DR13

Samplerate: 96000 Hz
Channels: 2
Bits per sample: 24
Bitrate: 3033 kbps
Codec: FLAC
================================================================================


All thanks go to the original releaser