Wolf Alice - Visions Of A Life (2017) [Official Digital Download]

Posted By: Pisulik
Wolf Alice - Visions Of A Life (2017) [Official Digital Download]

Wolf Alice - Visions Of A Life (2017)
FLAC (tracks) 24-bit/48 kHz | Time - 46:42 minutes | 581 MB
Studio Master, Official Digital Download | Artwork: Front cover

Wolf Alice coming with their Sophomore album entitled Visions Of A Life, which is set for release September 29th, 2017 via Dirty Hit/RCA Records. Their previous single "Moaning Lisa Smile" was nominated for a 2016 GRAMMY Award Nomination for Best Rock Performance and was a Top 10 single at Alternative radio. Wolf Alice has been named one of Billboard Magazine's Artists to Watch, as well as one of Rolling Stone's 10 New Artists You Need to Know.

Tracklist:

01. Heavenward
02. Yuk Foo
03. Beautifully Unconventional
04. Don't Delete the Kisses
05. Planet Hunter
06. Sky Musings
07. Formidable Cool
08. Space & Time
09. Sadboy
10. St. Purple & Green
11. After the Zero Hour
12. Visions of a Life

foobar2000 1.3.7 / Dynamic Range Meter 1.1.1
log date: 2017-10-16 05:43:22

––––––––––––––––––––––––––––––––––––––––
Analyzed: Wolf Alice / Visions Of A Life
––––––––––––––––––––––––––––––––––––––––

DR Peak RMS Duration Track
––––––––––––––––––––––––––––––––––––––––
DR4 0.00 dB -6.88 dB 4:55 01-Heavenward
DR3 -0.17 dB -5.21 dB 2:13 02-Yuk Foo Explicit
DR5 -0.07 dB -6.77 dB 2:13 03-Beautifully Unconventional
DR5 0.00 dB -7.09 dB 4:35 04-Don't Delete The Kisses
DR4 -0.06 dB -7.67 dB 3:53 05-Planet Hunter
DR5 -0.02 dB -7.85 dB 2:58 06-Sky Musings Explicit
DR4 -0.08 dB -6.12 dB 3:33 07-Formidable Cool Explicit
DR4 -0.12 dB -5.60 dB 2:27 08-Space & Time
DR5 0.00 dB -7.05 dB 4:12 09-Sadboy
DR5 -0.08 dB -7.38 dB 4:22 10-St. Purple & Green
DR9 -0.18 dB -12.12 dB 3:24 11-After The Zero Hour
DR4 0.00 dB -6.50 dB 7:57 12-Visions Of A Life Explicit
––––––––––––––––––––––––––––––––––––––––

Number of tracks: 12
Official DR value: DR5

Samplerate: 48000 Hz
Channels: 2
Bits per sample: 24
Bitrate: 1804 kbps
Codec: FLAC
================================================================================


All thanks go to the original releaser