Yello - Yello 40 Years (2021) [Official Digital Download]

Posted By: pyatak
Yello - Yello 40 Years (2021) [Official Digital Download]

Yello - Yello 40 Years (2021) [Official Digital Download]
FLAC (tracks) 24-bit/48 kHz | Front Cover | Time - 04:46:38 minutes | 3,5 GB
Pop | Label: Yello (Universal Music), Official Digital Download

Electronic duo YELLO are celebrating their 40th anniversary with, YELL40 Years, a new retrospective issued across three physical formats.

This release will be available as a 4CD deluxe set, across two vinyl records and as a 2CD edition. The first two CDs offer a traditional ‘best of’ split into ‘first’ and ‘second’ 20 year periods. On the deluxe, the third disc offers ‘Mellow YELLO’ focusing on their more melodic, cinematic side and includes some hidden gems and collaborations like ‘The Rhythm Divine (feat. Shirley Bassey)’. The fourth disc in the deluxe is some of Dieter Meier and Boris Blank’s favourite YELLO remixes along with some previously unreleased re-workings such as Mark Reeder’s ‘Wet & Hard Mix’ of ‘Vicious Games’.

Surprisingly, not only does the brilliant 13 minute version of The Race not feature anywhere in this retrospective, there is no studio version at all, just a ‘live in Berlin’ variant from 2016. Bizarre.

The four-CD deluxe version is a 60-page hardcover book (apparently ‘strictly limited’) and contains exclusive and brand-new liner notes for every YELLO album released, including rare and never-before-seen photos. The deluxe features 71 tracks, the 2CD set offers 41 tracks and the 2LP vinyl includes a reduced 21 songs.

YELLO 40 Years will be released on 30 April 2021.

TRACKLIST

CD1

1. Yello - Bimbo
2. Yello - Pinball Cha Cha
3. Yello - The Evening's Young
4. Yello - Bananas To The Beat
5. Yello - I Love You
6. Yello - Lost Again
7. Yello - Bostich (N'Est-Ce Pas)
8. Yello - Daily Disco
9. Yello - Vicious Games
10. Yello - Oh Yeah
11. Yello - Blender
12. Yello - Goldrush
13. Yello - Tied Up
14. Yello - La Habanera
15. Yello - Rubberbandman
16. Yello - Jungle Bill
17. Yello - Night Train
18. Yello - Tremendous Pain
19. Yello - Houdini
20. Yello - Base For Alec
21. Yello - Liquid Lies

CD2

1. Yello - Electrified II
2. Yello - Soul On Ice
3. Yello - Don Turbulento
4. Yello - Planet Dada
5. Yello - 30'000 Days
6. Yello - Arthur Spark
7. Yello - The Vanishing Of Peter Strong
8. Yello - Distant Solution
9. Yello - Mean Monday
10. Yello - Cold Flame
11. Yello - Dialectical Kid
12. Yello - The Expert
13. Yello - Basic Avenue
14. Yello - Waba Duba
15. Yello - Limbo
16. Yello - Spinning My Mind
17. Yello - Tiger Dust
18. Yello - Way Down
19. Yello - Hot Pan
20. Yello - The Race

CD3

1. Yello - Solar Driftwood
2. Yello - Out Of Dawn
3. Yello - Stay
4. Yello - Drive / Driven
5. Yello - Time Palace
6. Yello - Tangier Blue
7. Yello - Friday Smile
8. Yello - Till Tomorrow
9. Yello - Moon On Ice
10. Yello - Kiss The Cloud
11. Yello - Capri Calling
12. Yello - Desire
13. Yello - You Better Hide
14. Yello - The Rhythm Divine
15. Yello - Starlight Scene
16. Yello - Otto Di Catania
17. Yello - Meet My Angel
18. Yello - Pacific AM

CD4

1. Yello - Do It
2. Yello - Limbo
3. Yello - Electrified II
4. Yello - How How
5. Yello - Bostich
6. Yello - Squeeze Please
7. Yello - Oh Yeah 'Oh Six
8. Yello - More
9. Yello - Vicious Games
10. Yello - Takla Makan
11. Yello - Planet Dada
12. Yello - Topaz

foobar2000 1.6.1 / Dynamic Range Meter 1.1.1
log date: 2021-04-29 16:11:02

––––––––––––––––––––––––––––––––––––––––
Analyzed: Yello / Yello 40 Years
––––––––––––––––––––––––––––––––––––––––

DR Peak RMS Duration Track
––––––––––––––––––––––––––––––––––––––––
DR11 -0.18 dB -12.04 dB 3:35 01-Bimbo
DR9 0.00 dB -10.87 dB 3:24 02-Pinball Cha Cha
DR9 0.00 dB -10.65 dB 3:08 03-The Evening's Young
DR11 0.00 dB -12.57 dB 2:58 04-Bananas To The Beat
DR9 -0.44 dB -11.17 dB 3:15 05-I Love You
DR9 0.00 dB -11.27 dB 4:19 06-Lost Again
DR11 0.00 dB -12.72 dB 4:34 07-Bostich (N'Est-Ce Pas)
DR11 0.00 dB -11.79 dB 4:29 08-Daily Disco
DR11 0.00 dB -11.83 dB 4:18 09-Vicious Games
DR10 -0.18 dB -12.41 dB 3:06 10-Oh Yeah
DR8 0.00 dB -9.98 dB 3:27 11-Blender
DR10 0.00 dB -12.13 dB 4:05 12-Goldrush
DR10 0.00 dB -12.20 dB 3:33 13-Tied Up
DR11 -0.29 dB -12.90 dB 3:39 14-La Habanera
DR9 0.00 dB -11.26 dB 3:36 15-Rubberbandman
DR12 0.00 dB -13.41 dB 3:37 16-Jungle Bill
DR10 0.00 dB -12.39 dB 3:50 17-Night Train
DR9 0.00 dB -11.05 dB 3:32 18-Tremendous Pain
DR9 0.00 dB -10.41 dB 2:53 19-Houdini
DR10 -1.27 dB -12.46 dB 2:54 20-Base For Alec
DR8 0.00 dB -9.61 dB 3:39 21-Liquid Lies
––––––––––––––––––––––––––––––––––––––––

Number of tracks: 21
Official DR value: DR10

Samplerate: 48000 Hz
Channels: 2
Bits per sample: 24
Bitrate: 1786 kbps
Codec: FLAC
================================================================================

foobar2000 1.6.1 / Dynamic Range Meter 1.1.1
log date: 2021-04-29 16:11:18

––––––––––––––––––––––––––––––––––––––––
Analyzed: Yello / Yello 40 Years
––––––––––––––––––––––––––––––––––––––––

DR Peak RMS Duration Track
––––––––––––––––––––––––––––––––––––––––
DR10 0.00 dB -12.01 dB 2:50 01-Electrified II
DR10 0.00 dB -10.89 dB 3:14 02-Soul On Ice
DR9 0.00 dB -11.21 dB 4:50 03-Don Turbulento
DR9 0.00 dB -10.69 dB 3:05 04-Planet Dada
DR8 0.00 dB -10.17 dB 4:04 05-30'000 Days
DR10 0.00 dB -10.79 dB 3:35 06-Arthur Spark
DR8 0.00 dB -9.66 dB 3:16 07-The Vanishing Of Peter Strong
DR9 -0.08 dB -11.56 dB 3:50 08-Distant Solution
DR8 0.00 dB -9.43 dB 3:29 09-Mean Monday
DR9 0.00 dB -10.61 dB 4:02 10-Cold Flame
DR9 0.00 dB -11.03 dB 3:18 11-Dialectical Kid
DR10 0.00 dB -11.48 dB 2:54 12-The Expert
DR10 0.00 dB -11.20 dB 2:56 13-Basic Avenue
DR11 0.00 dB -12.71 dB 3:07 14-Waba Duba
DR10 0.00 dB -12.12 dB 3:22 15-Limbo
DR11 0.00 dB -13.60 dB 2:47 16-Spinning My Mind
DR10 0.00 dB -11.84 dB 2:59 17-Tiger Dust
DR10 0.00 dB -11.43 dB 3:19 18-Way Down
DR10 0.00 dB -11.78 dB 3:17 19-Hot Pan
DR10 0.00 dB -12.53 dB 6:47 20-The Race
––––––––––––––––––––––––––––––––––––––––

Number of tracks: 20
Official DR value: DR10

Samplerate: 48000 Hz
Channels: 2
Bits per sample: 24
Bitrate: 1750 kbps
Codec: FLAC
================================================================================

foobar2000 1.6.1 / Dynamic Range Meter 1.1.1
log date: 2021-04-29 16:11:31

––––––––––––––––––––––––––––––––––––––––
Analyzed: Yello / Yello 40 Years
––––––––––––––––––––––––––––––––––––––––

DR Peak RMS Duration Track
––––––––––––––––––––––––––––––––––––––––
DR10 -1.87 dB -15.37 dB 1:51 01-Solar Driftwood
DR10 0.00 dB -11.71 dB 3:23 02-Out Of Dawn
DR10 0.00 dB -11.82 dB 3:03 03-Stay
DR10 0.00 dB -11.43 dB 4:13 04-Drive / Driven
DR9 -0.36 dB -11.16 dB 3:41 05-Time Palace
DR9 0.00 dB -10.10 dB 2:40 06-Tangier Blue
DR9 0.00 dB -9.99 dB 3:31 07-Friday Smile
DR8 0.00 dB -10.30 dB 4:17 08-Till Tomorrow
DR7 0.00 dB -9.41 dB 4:13 09-Moon On Ice
DR10 0.00 dB -12.57 dB 3:10 10-Kiss The Cloud
DR9 0.00 dB -11.67 dB 2:52 11-Capri Calling
DR9 -0.49 dB -11.35 dB 3:41 12-Desire
DR9 -0.12 dB -11.41 dB 4:00 13-You Better Hide
DR9 0.00 dB -11.21 dB 4:18 14-The Rhythm Divine
DR9 0.00 dB -11.09 dB 3:17 15-Starlight Scene
DR10 0.00 dB -12.35 dB 3:21 16-Otto Di Catania
DR8 0.00 dB -10.17 dB 3:44 17-Meet My Angel
DR10 0.00 dB -13.09 dB 3:23 18-Pacific AM
––––––––––––––––––––––––––––––––––––––––

Number of tracks: 18
Official DR value: DR9

Samplerate: 48000 Hz
Channels: 2
Bits per sample: 24
Bitrate: 1592 kbps
Codec: FLAC
================================================================================

foobar2000 1.6.1 / Dynamic Range Meter 1.1.1
log date: 2021-04-29 16:11:48

––––––––––––––––––––––––––––––––––––––––
Analyzed: Yello / Yello 40 Years
––––––––––––––––––––––––––––––––––––––––

DR Peak RMS Duration Track
––––––––––––––––––––––––––––––––––––––––
DR11 -0.06 dB -13.11 dB 7:48 01-Do It
DR10 0.00 dB -11.68 dB 7:12 02-Limbo
DR10 0.00 dB -10.72 dB 6:53 03-Electrified II
DR9 0.00 dB -10.22 dB 5:50 04-How How
DR8 -0.07 dB -9.30 dB 8:03 05-Bostich
DR8 0.00 dB -9.05 dB 7:54 06-Squeeze Please
DR10 0.00 dB -11.36 dB 7:03 07-Oh Yeah 'Oh Six
DR8 0.00 dB -9.88 dB 5:42 08-More
DR8 0.00 dB -9.35 dB 5:49 09-Vicious Games
DR7 0.00 dB -8.46 dB 8:11 10-Takla Makan
DR8 0.00 dB -9.65 dB 3:11 11-Planet Dada
DR8 0.00 dB -9.84 dB 3:34 12-Topaz
––––––––––––––––––––––––––––––––––––––––

Number of tracks: 12
Official DR value: DR9

Samplerate: 48000 Hz
Channels: 2
Bits per sample: 24
Bitrate: 1765 kbps
Codec: FLAC
================================================================================



Thanks to the Original customer.