Yes - Tales from Topographic Oceans (1973/2013) [Official Digital Download 24/192]

Posted By: pyatak
Yes - Tales from Topographic Oceans (1973/2013) [Official Digital Download 24/192]

Yes - Tales from Topographic Oceans (1973/2013) [Official Digital Download 24/192]
FLAC (tracks) 24-bit/192 kHz | Front Cover | Time - 81:29 minutes | 2,83 GB
Progressive Rock | Label: Rhino Atlantic , Official Digital Download

Tales from Topographic Oceans is the sixth studio album by English progressive rock band Yes, released on 7 December 1973 by Atlantic Records. Yes frontman Jon Anderson devised the concept album during the band's 1973 Japanese tour when he read a footnote in Autobiography of a Yogi by Paramahansa Yogananda that describes four bodies of Hindu texts about a specific field of knowledge, collectively named shastras: the śruti, smriti, puranas, and tantras.

After pitching the idea to guitarist Steve Howe, the two developed the album's themes and lyrics that took shape as a double album containing four side-long tracks based on each text. The album was negatively received by keyboardist Rick Wakeman, who disagreed with its structure and elaborate concept and felt unable to contribute to the music that had been written. It is the first Yes studio album to feature drummer Alan White, who replaced Bill Bruford in the previous year.

The album received a mixed critical reception and became a symbol of alleged progressive rock excess with its detailed concept and lengthy songs. However it was a commercial success, becoming the first UK album to reach gold certification solely based on pre-orders. It topped the UK Album Chart for two weeks and reached No. 6 in the US, where it went gold in 1974 for selling 500,000 copies. Yes supported the album with a five-month tour of Europe and North America, the largest in the band's history at the time, that featured the entire album performed live.

Tales from Topographic Oceans was reissued in 1994 and 2003; the latter included previously unreleased tracks. An edition with new stereo and 5.1 surround sound mixes by Steven Wilson arrived in 2016.

TRACKLIST

1. Yes - The Revealing Science of God (Dance of the Dawn)
2. Yes - The Remembering (High the Memory)
3. Yes - The Ancient (Giants Under the Sun)
4. Yes - Ritual (Nous Sommes du Soleil)

foobar2000 1.6.2 / Dynamic Range Meter 1.1.1
log date: 2021-04-13 12:58:10

––––––––––––––––––––––––––––––––––––––––
Analyzed: Yes / Tales from Topographic Oceans
––––––––––––––––––––––––––––––––––––––––

DR Peak RMS Duration Track
––––––––––––––––––––––––––––––––––––––––
DR12 -0.40 dB -15.44 dB 20:29 01-The Revealing Science of God (Dance of the Dawn)
DR11 -0.55 dB -15.45 dB 20:44 02-The Remembering (High the Memory)
DR12 -0.98 dB -16.11 dB 18:41 03-The Ancient (Giants Under the Sun)
DR12 0.00 dB -17.37 dB 21:39 04-Ritual (Nous Sommes du Soleil)
––––––––––––––––––––––––––––––––––––––––

Number of tracks: 4
Official DR value: DR12

Samplerate: 192000 Hz
Channels: 2
Bits per sample: 24
Bitrate: 4933 kbps
Codec: FLAC
================================================================================



Thanks to the Original customer.