Yes - Yessongs (Live) (1973/2013) [Official Digital Download 24/192]

Posted By: pyatak
Yes - Yessongs (Live) (1973/2013) [Official Digital Download 24/192]

Yes - Yessongs (Live) (1973/2013) [Official Digital Download 24/192]
FLAC (tracks) 24-bit/192 kHz | Front Cover | Time - 02:10:09 minutes | 4,57 GB
Progressive Rock | Label: Rhino Atlantic, Official Digital Download

Yessongs is the first live album by the English progressive rock band Yes, released as a triple album in May 1973 on Atlantic Records. After completing their Close to the Edge Tour in April 1973, the band selected live recordings between February and December 1972 on their tours supporting Fragile (1971) and Close to the Edge (1972) for a live album release. They were then edited and remixed with their producer and live sound mixer Eddy Offord. Three tracks feature original Yes drummer Bill Bruford while the remaining tracks feature his replacement, Alan White.

Yessongs received a mostly positive reception from music critics, though much of its criticism was directed at its sound quality. However, the album was a commercial success for the band, reaching number 7 on the UK Albums Chart and number 12 on the US Billboard 200. In 1998, the album was certified platinum by the Recording Industry Association of America (RIAA) for selling over one million copies in the United States. In 2015, recordings of seven shows from late 1972, including ones that were used in the original album, were released in their entirety as Progeny: Seven Shows from Seventy-Two.

TRACKLIST

1. Yes - Opening (Excerpt from "Firebird Suite") (Live)
2. Yes - Siberian Khatru (Live)
3. Yes - Heart of the Sunrise (Live)
4. Yes - Perpetual Change (Live)
5. Yes - And You and I: i. Cord of Life, ii. Eclipse, iii. The Preacher the Teacher, iv. The Apocalypse (Live)
6. Yes - Mood for a Day (Live)
7. Yes - Excerpts from "The Six Wives of Henry VIII" (Live)
8. Yes - Roundabout (Live)
9. Yes - I've Seen All Good People: a. Your Move b. All Good People (Live)
10. Yes - Long Distance Runaround / The Fish (Schindleria Praemeturus) (Live)
11. Yes - Close to the Edge: i. The Solid Time of Change, ii. Total Mass Retain, iii. I Get up I Get Down, iv. Seasons of Man (Live)
12. Yes - Yours Is No Disgrace (Live)
13. Yes - Starship Trooper: a. Life Seeker, b. Disillusion, c. Würm (Live)

foobar2000 1.6.2 / Dynamic Range Meter 1.1.1
log date: 2021-04-11 14:34:46

––––––––––––––––––––––––––––––––––––––––
Analyzed: Yes / Yessongs (Live)
––––––––––––––––––––––––––––––––––––––––

DR Peak RMS Duration Track
––––––––––––––––––––––––––––––––––––––––
DR11 -7.80 dB -23.50 dB 3:47 01-Opening (Excerpt from "Firebird Suite") (Live)
DR9 -0.10 dB -10.86 dB 8:58 02-Siberian Khatru (Live)
DR10 -0.10 dB -12.75 dB 11:25 03-Heart of the Sunrise (Live)
DR10 -0.67 dB -13.23 dB 14:22 04-Perpetual Change (Live)
DR9 -0.70 dB -12.53 dB 9:45 05-And You and I: i. Cord of Life, ii. Eclipse, iii. The Preacher the Teacher, iv. The Apocalypse (Live)
DR14 -0.10 dB -17.83 dB 2:54 06-Mood for a Day (Live)
DR11 -0.10 dB -15.18 dB 6:38 07-Excerpts from "The Six Wives of Henry VIII" (Live)
DR9 -0.10 dB -11.44 dB 8:35 08-Roundabout (Live)
DR10 -1.55 dB -15.48 dB 7:09 09-I've Seen All Good People: a. Your Move b. All Good People (Live)
DR10 -1.11 dB -14.70 dB 13:39 10-Long Distance Runaround / The Fish (Schindleria Praemeturus) (Live)
DR10 -0.26 dB -13.61 dB 18:19 11-Close to the Edge: i. The Solid Time of Change, ii. Total Mass Retain, iii. I Get up I Get Down, iv. Seasons of Man (Live)
DR9 -0.77 dB -12.04 dB 14:24 12-Yours Is No Disgrace (Live)
DR10 -0.10 dB -13.04 dB 10:18 13-Starship Trooper: a. Life Seeker, b. Disillusion, c. Würm (Live)
––––––––––––––––––––––––––––––––––––––––

Number of tracks: 13
Official DR value: DR10

Samplerate: 192000 Hz
Channels: 2
Bits per sample: 24
Bitrate: 5127 kbps
Codec: FLAC
================================================================================



Thanks to the Original customer.