Tags
Language
Tags

Adam Lambert - The Original High {Deluxe Edition} (2015) [Official Digital Download]

Posted By: HDV
Adam Lambert - The Original High {Deluxe Edition} (2015) [Official Digital Download]

Adam Lambert - The Original High (2015) [Deluxe Edition]
FLAC (tracks) 24-bit/44,1 kHz | Time - 50:22 minutes | 612 MB
Studio Master, Official Digital Download | Artwork: Front cover

Multi-platinum-selling, singer/songwriter Adam Lambert will release his highly anticipated third studio album THE ORIGINAL HIGH. Recorded in Stockholm, Sweden and Los Angeles, California with Max Martin and Shellback as executive producers (Katy Perry, Maroon 5, Pink, etc.), THE ORIGINAL HIGH displays a fresh sound for Lambert, and includes collaborations with Tove Lo and Brian May from Queen. This Deluxe Edition features three bonus tracks.

Adam Lambert shakes off the shackles of the past by returning to his roots on The Original High. No longer with RCA, the label who signed him in the wake of American Idol, Lambert seizes this freedom by reuniting with producers Max Martin and Shellback, the team who gave him his big 2009 hit "Whataya Want from Me," but this is by no means a throwback. Martin and Shellback remain fixtures at the top of the pop charts – they were instrumental collaborators on Taylor Swift's 1989, the biggest album of 2014 – and they're a comfortable, stylish fit for the clever Lambert, a singer as comfortable with a glam-disco past as he is an EDM present. The Original High cannily synthesizes these two sides of Lambert, an intersection made explicit on "Lucy," where Adam sings about "diamond dogs" while his Queen bandmate Brian May lays down lead guitar over a crawling electro-beat. Elsewhere, Lambert ratchets up either the rock or the dance, but usually favors the latter, sometimes sliding into full-bore glitter ball territory – "The Original High," where the beat slowly modulates from disco into EDM and the bonus "These Boys," which shamelessly appropriates the polyester styles of the '70s – but usually finding an expert balance between pulsating rhythms and gleaming surfaces, not to mention insidiously ingratiating pop hooks. This emphasis on the hook and tune distinguishes The Original High, a record where Martin and Shellback's production, like Adam's soaring vocals, is in service of the song. Although the album can linger on moody noir a little too long – the lightest material is squired away on the three bonus tracks, each an effervescent delight – the individual components work on their own merits, whether it's the steely clatter of the Tove Lo duet "Rumours," the elegantly skeletal cinemascapes of "Ghost Town," or the cleanly constructed lines of "Things I Didn't Say." Here, and throughout The Original High, Adam Lambert demonstrates he's in perfect control of his style and sound and knows how to combine both into a sterling modern pop record.

Tracklist:

01 - Ghost Town
02 - The Original High
03 - Another Lonely Night
04 - Underground
05 - There I Said It
06 - Rumors (feat. Tove Lo)
07 - Evil In The Night
08 - Lucy (feat. Brian May)
09 - Things I Didn't Say
10 - The Light
11 - Heavy Fire
12 - After Hours (Bonus Track)
13 - Shame (Bonus Track)
14 - These Boys (Bonus Track)

Analyzed: Adam Lambert / The Original High (Deluxe Version)
––––––––––––––––––––––––––––––––––––––––

DR Peak RMS Duration Track
––––––––––––––––––––––––––––––––––––––––
DR4 -0.73 dB -7.51 dB 3:28 01-Ghost Town
DR5 -0.60 dB -8.78 dB 3:26 02-The Original High
DR5 -0.76 dB -8.66 dB 3:46 03-Another Lonely Night
DR6 -0.60 dB -9.98 dB 3:37 04-Underground
DR7 -0.75 dB -11.73 dB 4:21 05-There I Said It
DR6 -0.74 dB -9.46 dB 3:46 06-Rumors (feat. Tove Lo)
DR5 -0.60 dB -9.09 dB 3:56 07-Evil In The Night
DR5 -0.60 dB -8.39 dB 3:32 08-Lucy (feat. Brian May)
DR7 -0.64 dB -9.43 dB 3:58 09-Things I Didn't Say
DR6 -0.60 dB -8.59 dB 3:36 10-The Light
DR5 -0.80 dB -7.86 dB 3:19 11-Heavy Fire
DR5 -0.70 dB -10.21 dB 2:44 12-After Hours (Bonus Track)
DR7 -0.70 dB -9.23 dB 3:26 13-Shame (Bonus Track)
DR6 -0.60 dB -8.01 dB 3:25 14-These Boys (Bonus Track)
––––––––––––––––––––––––––––––––––––––––

Number of tracks: 14
Official DR value: DR6

Samplerate: 44100 Hz
Channels: 2
Bits per sample: 24
Bitrate: 1742 kbps
Codec: FLAC
================================================================================


Thanks to the Original customer!