Tags
Language
Tags

Aimee Mann - Lost In Space (2002) [MFSL 2003] PS3 ISO + DSD64 + Hi-Res FLAC

Posted By: HDAtall
Aimee Mann - Lost In Space (2002) [MFSL 2003] PS3 ISO + DSD64 + Hi-Res FLAC

Aimee Mann - Lost In Space (2002) [MFSL 2003]
PS3 Rip | SACD ISO | DSD64 2.0 > 1-bit/2.8224 MHz | 42:56 minutes | Scans included | 1,35 GB
or DSD64 2.0 (from SACD-ISO to Tracks.dsf) > 1-bit/2.8224 MHz | Full Scans included | 1,22 GB
or FLAC (carefully converted & encoded to tracks) 24bit/96 kHz | Full Scans included | 1024 MB
Mobile Fidelity Sound Lab # UDSACD 2021

Lost in Space is an album by singer-songwriter Aimee Mann, released in 2002 on her own label, SuperEgo Records. Mann performed the songs "This Is How It Goes" and "Pavlov's Bell" during a guest appearance on the television show Buffy the Vampire Slayer, in the season seven episode "Sleeper". "Today's the Day" is featured in the 2002 film Enough. The cover and accompanying mini-comic were drawn by Canadian cartoonist Seth. This album also introduced a more heavily produced experimental sound for Mann, that has not been featured in prior albums or albums after Lost in Space.

It is, in a sense, a trick of the times that Lost in Space conveys such a vivid visual quality; thanks to the high profile given to her music on the Magnolia soundtrack, it's now impossible to miss the narrative strength of Mann's writing. The mood throughout this album is autumnal, with filmy keyboard beds and expressive shifts between major and minor enhancing the subdued eloquence of her lyrics. (A major chord at the end of "Guys Like Me offers an ironic twist on the smug portraiture that precedes it.) Though recorded free of the legal snarls that plagued most of her previous albums, Lost in Space seems to be mainly about alienation and, at least as a metaphor, addiction. The latter point is made clear in "This Is How It Goes," with its assertions that "it's all about drugs, it's all about shame." But it's clear as well when Mann offers to "be your heroine" – or is it heroin? – amidst slithering slide guitars and rainy gray textures on "High on Sunday 51," or confesses to seeking salvation where "It's Not." Recorded largely in Ryan Freeland's home studio, some of these songs receive discreet electronic treatments – moments of abstract noise whose application always enhances the otherwise low-tech arrangements. For all the shadows that stretch across Lost in Space, what lingers in the wake of this music is the realization that Mann remains spectacularly underrated among contemporary songwriters; no one surpasses her as a master of poetic regret, and few albums examine the peculiar beauty of depression with the skill she brings to Lost in Space.

Tracklist:

01. Humpty Dumpty
02. High On Sunday 51
03. Lost In Space
04. This Is How It Goes
05. Guys Like Me
06. Pavlov's Bell
07. Real Bad News
08. Invisible Ink
09. Today's The Day
10. The Moth
11. It's Not

Mastered by Shawn R. Britton at Mobile Fidelity Sound Lab, Sebastopol, CA.

foobar2000 1.6.6 / Dynamic Range Meter 1.1.1

––––––––––––––––––––––––––––––––––––––––
Analyzed: Aimee Mann / Lost In Space
––––––––––––––––––––––––––––––––––––––––

DR Peak RMS Duration Track
––––––––––––––––––––––––––––––––––––––––
DR11 -3.57 dB -15.57 dB 4:01 01-Humpty Dumpty
DR11 -3.98 dB -18.60 dB 3:14 02-High On Sunday 51
DR11 -3.76 dB -17.48 dB 3:26 03-Lost In Space
DR12 -3.51 dB -19.40 dB 3:48 04-This Is How It Goes
DR11 -3.71 dB -16.88 dB 3:11 05-Guys Like Me
DR11 -3.73 dB -16.52 dB 4:27 06-Pavlov's Bell
DR11 -4.12 dB -17.65 dB 3:52 07-Real Bad News
DR11 -3.89 dB -19.75 dB 5:00 08-Invisible Ink
DR10 -3.70 dB -16.84 dB 4:42 09-Today's The Day
DR11 -3.76 dB -16.96 dB 3:46 10-The Moth
DR11 -4.43 dB -19.30 dB 3:30 11-It's Not
––––––––––––––––––––––––––––––––––––––––

Number of tracks: 11
Official DR value: DR11

Samplerate: 2822400 Hz / PCM Samplerate: 176400 Hz
Channels: 2
Bits per sample: 1
Bitrate: 5645 kbps
Codec: DSD64


Thanks to PS³SACD!
Uncompressed SACD ISO size > 1,72 GB
>