Aimi Kobayashi - Chopin: Piano Sonata No. 2 / Liszt: Dante Sonata & 3 Petrarch Sonnets (2018) [Official Digital Download]

Posted By: HDV
Aimi Kobayashi - Chopin: Piano Sonata No. 2 / Liszt: Dante Sonata & 3 Petrarch Sonnets (2018) [Official Digital Download]

Aimi Kobayashi - Chopin / Liszt: Solo Piano (2018)
FLAC (tracks) 24-bit/44,1 kHz | Time - 65:27 minutes | 526 MB
Studio Master, Official Digital Download | Artwork: Front cover

Aimi Kobayashi is a leading young Japanese pianist, one of the finalists at the Chopin Competition in 2015 Aimi Kobayashi is a leading young Japanese pianist, one of the finalists at the Chopin Competition in 2015. Born in Yamaguchi, Japan, on 23 September 1995, Aimi began her piano studies aged three, and made her first appearance with orchestra at the age of seven, followed by her international debut two years later. Since then, Aimi has appeared at the Carnegie Hall in New York no less than four times. Her international career continues to flourish: she was invited by various venues in Moscow, Poland and Brazil, amongst others. She has amazed audiences with her performances with the Orchestra of the Eighteenth Century under Frans Brüggen, as well as the Moscow Virtuosi with Vladimir Spivakov. She has performed in Poland several times, including at the International Music Festival “Chopin and his Europe”, and in concerto programmes by numerous Polish orchestras. She has performed with Yomiuri Nippon Symphony Orchestra, Tokyo Philharmonic Orchestra, Hyogo Pac Orchestra, and Japan Philharmonic Orchestra, and received high acclaim for her recitals in Japan, including at the Suntory Hall.

Tracklist:

01 - Piano Sonata No. 2 in B-Flat Minor, Op. 35: I. Grave, Doppio Movimento
02 - Piano Sonata No. 2 in B-Flat Minor, Op. 35: II. Scherzo
03 - Piano Sonata No. 2 in B-Flat Minor, Op. 35: III. Marche Funèbre
04 - Piano Sonata No. 2 in B-Flat Minor, Op. 35: IV. Finale (Presto)
05 - Années de pèlerinage, Deuxième année-Italie, S. 161: No. 4, Sonetto 47 del Petrarca
06 - Années de pèlerinage, Deuxième année-Italie, S. 161: No. 5, Sonetto 104 del Petrarca
07 - Années de pèlerinage, Deuxième année-Italie, S. 161: No. 6, Sonetto 123 del Petrarca
08 - Années de pèlerinage, Deuxième année-Italie, S. 161: No. 7, Après une lecture du Dante (Fantasia quai sonata)
09 - 3 Liebesträume S. 541: No. 3 in A-Flat Major, "O lieb so lang' du lieben kannst"

Produced, Edited, Mixed & Mastered by Antonio Oliart.
Recorded on August 17–19 & 25, 2017 at Fraser Performance Studio, WGBH, Boston.

Analyzed: Aimi Kobayashi / Chopin: Piano Sonata No. 2 - Liszt: Dante Sonata & 3 Petrarch Sonnets
––––––––––––––––––––––––––––––––––––––––

DR Peak RMS Duration Track
––––––––––––––––––––––––––––––––––––––––
DR12 -0.30 dB -18.45 dB 5:30 01-Piano Sonata No. 2 in B-Flat Minor, Op. 35: I. Grave, Doppio Movimento
DR13 -0.62 dB -21.28 dB 6:59 02-Piano Sonata No. 2 in B-Flat Minor, Op. 35: II. Scherzo
DR15 -2.93 dB -25.67 dB 9:58 03-Piano Sonata No. 2 in B-Flat Minor, Op. 35: III. Marche Funèbre
DR14 -4.32 dB -23.97 dB 1:41 04-Piano Sonata No. 2 in B-Flat Minor, Op. 35: IV. Finale (Presto)
DR14 -5.77 dB -27.64 dB 6:26 05-Années de pèlerinage, Deuxième année-Italie, S. 161: No. 4, Sonetto 47 del Petrarca
DR14 -3.38 dB -24.76 dB 6:19 06-Années de pèlerinage, Deuxième année-Italie, S. 161: No. 5, Sonetto 104 del Petrarca
DR16 -6.39 dB -28.95 dB 6:46 07-Années de pèlerinage, Deuxième année-Italie, S. 161: No. 6, Sonetto 123 del Petrarca
DR13 -0.30 dB -18.18 dB 16:44 08-Années de pèlerinage, Deuxième année-Italie, S. 161: No. 7, Après une lecture du Dante (Fantasia quai sonata)
DR14 -2.83 dB -24.60 dB 5:03 09-3 Liebesträume S. 541: No. 3 in A-Flat Major, "O lieb so lang' du lieben kannst"
––––––––––––––––––––––––––––––––––––––––

Number of tracks: 9
Official DR value: DR14

Samplerate: 44100 Hz
Channels: 2
Bits per sample: 24
Bitrate: 1010 kbps
Codec: FLAC
================================================================================


Thanks to the Original customer!