The Alban Berg Quartet - Haydn: Emperor / Mozart: Hunt (1994) [Japan 2014] SACD ISO + Hi-Res FLAC

Posted By: HDAtall
The Alban Berg Quartet - Haydn: Emperor / Mozart: Hunt (1994) [Japan 2014] SACD ISO + Hi-Res FLAC

Alban Berg Quartett - Haydn: Emperor / Mozart: Hunt (1994) [Japan 2014]
SACD Rip | SACD ISO | DSD64 2.0 > 1-bit/2.8224 MHz | 50:05 minutes | Scans included | 1,47 GB
or FLAC (converted with foobar2000 to tracks) 24bit/44,1 kHz | Full Scans included | 614 MB

The Alban Berg Quartet was founded in 1971 and within a decade was established as one of the finest string quartets in the world. It was known for its large recorded sets of the complete quartets of many masters of the genre. The members of the quartet – which included violinists Günter Pichler, Gerhard Schulz, Kakuska, and cellist Valentin Erben, of whom Pichler, Schulz and Erben were founding members – were all faculty members of the Wiener Hochschule für Musik and also taught master classes on German chamber music regularly at the Musikhochschule in Cologne. The group won 30 major international recording awards, representing virtually every top prize of note.

Tracklist:

01. Joseph Haydn - String Quartet in C major Op 76 No. 3 Emperor: I Allegro
02. Joseph Haydn - String Quartet in C major Op 76 No. 3 Emperor: II Poco adagio - Cantabile (Thema)
03. Joseph Haydn - String Quartet in C major Op 76 No. 3 Emperor: Variation I
04. Joseph Haydn - String Quartet in C major Op 76 No. 3 Emperor: Variation II
05. Joseph Haydn - String Quartet in C major Op 76 No. 3 Emperor: Variation III
06. Joseph Haydn - String Quartet in C major Op 76 No. 3 Emperor: Variation IV
07. Joseph Haydn - String Quartet in C major Op 76 No. 3 Emperor: III Menuetto (Allegro)
08. Joseph Haydn - String Quartet in C major Op 76 No. 3 Emperor: IV Finale (Presto)
09. Wolfgang Amadeus Mozart - String Quartet No. 17 in B flat, 'Hunt' K458: Allegro vivace assai
10. Wolfgang Amadeus Mozart - String Quartet No. 17 in B flat, 'Hunt' K458: Menuetto (Moderato) & Trio
11. Wolfgang Amadeus Mozart - String Quartet No. 17 in B flat, 'Hunt' K458: Adagio
12. Wolfgang Amadeus Mozart - String Quartet No. 17 in B flat, 'Hunt' K458: Allegro assai

Alban Berg Quartett
Günter Pichiler - 1st Violin
Gerhard Schulz - 2nd Violin
Thomas Kakuska - Viola
Valentin Erben - Violoncello

Recorded: VI,1990 [Mozart] and XII 1993, 16-24 VI 1994 [Haydn], Evangelische Kirche, Séon, Switzerland.
Re-Mastering Engineer : Kazuie Sugimoto (Victor Creative Media Co., Ltd. Mastering Center).
Esoteric Japan # ESSW-90101

foobar2000 1.5.4 / Dynamic Range Meter 1.1.1

––––––––––––––––––––––––––––––––––––––––
Analyzed: Joseph Haydn / ? (1-8)
Wolfgang Amadeus Mozart / ? (9-12)
––––––––––––––––––––––––––––––––––––––––

DR Peak RMS Duration Track
––––––––––––––––––––––––––––––––––––––––
DR14 -5.41 dB -25.67 dB 6:53 01-String Quartet in C major Op 76 No. 3 Emperor: I Allegro
DR14 -13.69 dB -31.94 dB 1:12 02-String Quartet in C major Op 76 No. 3 Emperor: II Poco adagio - Cantabile (Thema)
DR12 -17.17 dB -33.06 dB 1:07 03-String Quartet in C major Op 76 No. 3 Emperor: Variation I
DR12 -12.98 dB -30.54 dB 1:10 04-String Quartet in C major Op 76 No. 3 Emperor: Variation II
DR12 -9.96 dB -29.63 dB 1:11 05-String Quartet in C major Op 76 No. 3 Emperor: Variation III
DR13 -13.49 dB -33.81 dB 1:45 06-String Quartet in C major Op 76 No. 3 Emperor: Variation IV
DR15 -6.91 dB -27.28 dB 4:26 07-String Quartet in C major Op 76 No. 3 Emperor: III Menuetto (Allegro)
DR14 -5.06 dB -24.48 dB 5:42 08-String Quartet in C major Op 76 No. 3 Emperor: IV Finale (Presto)
DR15 -5.11 dB -24.42 dB 8:45 09-String Quartet No. 17 in B flat, 'Hunt' K458: Allegro vivace assai
DR13 -7.77 dB -26.20 dB 4:12 10-String Quartet No. 17 in B flat, 'Hunt' K458: Menuetto (Moderato) & Trio
DR15 -7.95 dB -31.23 dB 7:08 11-String Quartet No. 17 in B flat, 'Hunt' K458: Adagio
DR13 -6.21 dB -25.29 dB 6:33 12-String Quartet No. 17 in B flat, 'Hunt' K458: Allegro assai
––––––––––––––––––––––––––––––––––––––––

Number of tracks: 12
Official DR value: DR13

Samplerate: 2822400 Hz / PCM Samplerate: 88200 Hz
Channels: 2
Bits per sample: 1
Bitrate: 5645 kbps
Codec: DSD64


Thanks to the Original ripper!
Uncompressed SACD ISO size > 2,01 GB
>