Albert Mangelsdorff, Alphonse Mouzon, Jaco Pastorius - Trilogue (1977/2015) [Official Digital Download 24/88]

Posted By: HDV
Albert Mangelsdorff, Alphonse Mouzon, Jaco Pastorius - Trilogue (1977/2015) [Official Digital Download 24/88]

Albert Mangelsdorff, Alphonse Mouzon, Jaco Pastorius - Trilogue (1977/2015)
FLAC (tracks) 24-bit/88,2 kHz | Time - 43:05 minutes | 769 MB
Studio Master, Official Digital Download | Artwork: Front cover

Legendary Weather Report electric bassist Jaco Pastorius and quintessential jazz-fusion drummer Alphonse Mouzon join Mangelsdorff at the 1976 Berlin Jazz Days for a combustion of creativity. Trilogue starts off solo with a multiphonic melody line and then opens up with free-wheeling give-and-take between the three. Zores Mores is straight ahead swing with Mangelsdorf’s masterful oblique phrasing and the pyrotechnical playing of Pastorious and Mouzon. There’s a bit of Spain and Flamenco in Foreign Fun with Mouzon laying down a complex carpet of sound and Pastorious setting up drone-like riffs. Accidental Meeting doesn’t seem to be so accidental after all. Albert writes three musical phrases, each composed in a different city, and then three separate musical beings converge as if predestined. Ant Steps On An Elephant’s Toe has a mix of the quick and the ponderous as Albert prances, plunger mute in hand, to a funky fusion rhythm. Multiphonics galore.

For those of you looking for some funky, chunky Jaco Pastorius jams, this isn't the place. For those looking for extremely free playing where Mangelsdorff's trombone runs wild and chaotic, this isn't it either. For the fusion freaks entranced by Alphonse Mouzon's skittering drum work that stops and starts on a sliver of light, best look elsewhere. For the rest who are seeking great jazz in any configuration, this just might be your ticket. Trilogue Live! was recorded at The Berlin Jazz Days in 1976 and originally issued on LP while Pastorius was at the height of his tenure with Weather Report. Playing an all-Mangelsdorff selection, this trio delivers an inspired performance that relies on timing, virtuosity, and a little humor for its bread and butter. The title track is the opener, and its slight abstraction is quickly replaced by Pastorius suggesting the frame of the melody to his counterparts, who pick it up and glide. On "Zores Mores," knotty little post-bop lines are woven into an easy framework of Mouzon's dancing hands and a solid yet very flexible interplay between the trombonist and Pastorius' ever-inquisitive basslines. The shimmering tension between the trio's members is all heat on "Accidental Meeting," the closest piece to pure abstraction here, but Mangelsdorff insists on, at the very least, the articulation of jazz formalism. "Foreign Fun" starts out like surreal circus music, but quickly walks the razor's edge between Weather Report's more adventurous material and noirish jazz. The set closes with the groaning humor of "Ant Steps on Elephant's Toe," a bumping, bubbling, dub-style cut that features Mangelsdorff blowing fully out of the blues and Pastorius playing the very best Aston Barrett he can. The dub effect gives way to funk about halfway through, and Mouzon becomes animated, doubling and tripling his cohorts in a joyful dance of curiosity and discovery. This cut is street-tough, plenty nasty, and leaves the audience – and listeners too, no doubt – begging for more.

Tracklist:

01 - Trilogue
02 - Zores Mores
03 - Foreign Fun
04 - Accidental Meeting
05 - Ant Step On An Elephant Toe

Produced by Joachim E. Berendt. Engineered by Carlos Albrecht at Tonstudio Bauer, Ludwigsburg, Germany.
Recorded Live at the Berlin Jazz Days, on November 6, 1976 at the Berlin Philharmonic.
Digitally Remastered in 2014.

Musicians:
Albert Mangelsdorff - trombone
Jaco Pastorius - bass
Alphonse Mouzon - drums


Analyzed: Albert Mangelsdorff, Alphonse Mouzon, Jaco Pastorius / Trilogue
––––––––––––––––––––––––––––––––––––––––

DR Peak RMS Duration Track
––––––––––––––––––––––––––––––––––––––––
DR13 -1.55 dB -19.19 dB 6:02 01-Trilogue
DR13 -0.56 dB -16.95 dB 8:43 02-Zores Mores
DR12 -1.15 dB -15.58 dB 7:57 03-Foreign Fun
DR12 -1.85 dB -17.74 dB 9:37 04-Accidental Meeting
DR12 -1.58 dB -17.59 dB 10:46 05-Ant Step On An Elephant Toe
––––––––––––––––––––––––––––––––––––––––

Number of tracks: 5
Official DR value: DR12

Samplerate: 88200 Hz
Channels: 2
Bits per sample: 24
Bitrate: 2379 kbps
Codec: FLAC
================================================================================


Thanks to the Original customer!