Tags
Language
Tags

Alexander Vedernikov, The Bolshoi Theatre - Highlights from Russian Operas, Vol. 1 (2006) [DSD64 + Hi-Res FLAC]

Posted By: HDV
Alexander Vedernikov, The Bolshoi Theatre - Highlights from Russian Operas, Vol. 1 (2006) [DSD64 + Hi-Res FLAC]

Alexander Vedernikov, The Bolshoi Theatre - Highlights from Russian Operas, Vol. 1 (2006)
DSD64 (.dsf) 1 bit/2,8 MHz | Time - 75:45 minutes | 1,73 GB
FLAC (tracks) 24-bit/96 kHz | Time - 75:45 minutes | 1,6 GB
Studio Master, Official Digital Download | Artwork: Digital booklet

Alexander Vedernikov leads the orchestra, soloists and chorus of the Bolshoi Theatre in Moscow on this first volume of Highlights From Russian Operas, including works by Tchaikovsky, Rachmaninov, Glinka and others.

This co-production of the Bolshoi Theatre (the word translates as “Great”) and Pentatone brings a sampling of the typical opera-goers’ experience in one of the great world centers of opera. And in exemplary surround sonics instead of the awful sound of Soviet-ear recordings or the so-so sound of many more recent Russian efforts. The opening of the original Bolshoi Theatre in Moscow in 1825 coincides with the birth of the national Russian opera. The Bolshoi today develops great traditions in a modern spirit. There are two stages where 500 performances are held each season, seating an audience of 3000 every evening. The best performers, directors, choreographers and conductors are retained for Bolshoi productions.

Bass voices have always been a strong focus of Russian opera, and the highlights program opens with two bass arias from Glinka’s A Life for the Czar. Dargomyszki’s Rusalka, seldom heard in the West, is next with a pair of arias featuring both tenor and bass soloists plus a male chorus. Three Tchaikovsky operas are excerpted with an aria from each: Iolanthe, Queen of Spades, and Mazeppa. The arioso from the latter is sung by baritone Yuri Nechaev; it was new to me and quite lovely. The selection from Rachmaninov’s Aleko is translated The magic power of song and again features a basso with male chorus. The familiar tunes of Borodin’s Prince Igor provide the final four selections on the disc. The soloists are baritone and bass with chorus. The last selection is one of the most energetic and dramatic versions of the orchestral Polovtsian Dances I’ve ever heard – making a grand audiophile wrap up to an interesting survey of the Bolshoi Experience.

Tracklist:

01 - Mikhail Glinka: A Life for the Czar, Act 2: After the battle the god of war - Polonaise and chorus
02 - Mikhail Glinka: A Life for the Czar, Act 4: They sense the truth! - Ivan Susanin's aria
03 - Alexander Dargomizhsky: Russalka, Act 3: Some unknown power - Prince's cavatina
04 - Alexander Dargomizhsky: Russalka, Act 3: What does this mean? - Mad scene
05 - Tchaikovsky: Iolanthe: Net, charyi lask krasyi myatezhnoj… (Vaudémont's Romance)
06 - Tchaikovsky: Queen of Spades, Act 3: It is close on midnight already - Lisa's aria
07 - Tchaikovsky: Mazeppa, Act 2: Mazeppa's arioso
08 - Rachmaninov: Aleko: Old Gipsy's Story
09 - Alexander Borodin: Prince Igor, Act 2: No sleep no rest - Prince Igor's aria (orch. Rimsky-Korsakov)
10 - Alexander Borodin: Prince Igor, Act 2: Are you in good health, Prince? - Konchak's aria
11 - Alexander Borodin: Prince Igor, Act 2: Hey, bring the captive girls here! - Recitativo (orch. Rimsky-Korsakov)
12 - Alexander Borodin: Prince Igor, Act 2: Polovetsian Dances

Recorded in November 2005 & February 2006 at The Bolshoi Theatre, Moscow, Russia.

Soloists, Chorus & Orchestra of the Bolshoi Theatre Moscow, Conducted by Alexander Vedernikov
Chorus Master: Valery Borisov
Concertmaster: Dmitry Khakhamov

Vladimir Matorin – bass on "1 & 2"
Mikhail Gubsky (Prince) – tenor; Alexander Naumenko (Miller) – bass on "3 & 4"
Vsevolod Grivnov – tenor on "5"
Elena Zelenskaya – soprano on "6"
Yuri Nechaev – baritone on "7"
Taras Shtonda – bass on "8"
Yuri Nechaev (Prince Igor) – baritone; Valery Gilmanov (Konchak) – bass on "9-12"


Analyzed: Soloists, Chorus & Orchestra of the Bolshoi Theatre Moscow, Alexander Vedernikov / The Bolshoi Experience: Highlights from Russian Operas
––––––––––––––––––––––––––––––––––––––––

DR Peak RMS Duration Track
––––––––––––––––––––––––––––––––––––––––
DR14 -7.61 dB -27.59 dB 4:41 01-A Life for the Czar, Act 2: After the battle the god of war - Polonaise and chorus
DR14 -14.87 dB -33.35 dB 5:06 02-A Life for the Czar, Act 4: They sense the truth! - Ivan Susanin's aria
DR14 -13.74 dB -32.79 dB 5:59 03-Russalka, Act 3: Some unknown power - Prince's cavatina
DR16 -8.18 dB -30.61 dB 11:42 04-Russalka, Act 3: What does this mean? - Mad scene
DR14 -11.13 dB -30.72 dB 4:13 05-Iolanthe: Net, charyi lask krasyi myatezhnoj… (Vaudémont's Romance)
DR13 -10.56 dB -30.69 dB 5:16 06-Queen of Spades, Act 3: It is close on midnight already - Lisa's aria
DR14 -15.06 dB -34.69 dB 5:13 07-Mazeppa, Act 2: Mazeppa's arioso
DR14 -14.93 dB -32.54 dB 5:26 08-Aleko: Old Gipsy's Story
DR14 -11.19 dB -30.72 dB 6:54 09-Prince Igor, Act 2: No sleep no rest - Prince Igor's aria (orch. Rimsky-Korsakov)
DR17 -10.43 dB -32.37 dB 6:31 10-Prince Igor, Act 2: Are you in good health, Prince? - Konchak's aria
DR15 -13.75 dB -32.65 dB 2:58 11-Prince Igor, Act 2: Hey, bring the captive girls here! - Recitativo (orch. Rimsky-Korsakov)
DR14 -5.83 dB -25.49 dB 11:46 12-Prince Igor, Act 2: Polovetsian Dances
––––––––––––––––––––––––––––––––––––––––

Number of tracks: 12
Official DR value: DR14

Samplerate: 2822400 Hz / PCM Samplerate: 176400 Hz
Channels: 2
Bits per sample: 1
Bitrate: 5645 kbps
Codec: DSD64
================================================================================


Thanks to the Original customer!