Tags
Language
Tags

Alexander Vedernikov, The Bolshoi Theatre - Glinka: Ruslan and Lyudmila (2004) [DSD64 + Hi-Res FLAC]

Posted By: HDV
Alexander Vedernikov, The Bolshoi Theatre - Glinka: Ruslan and Lyudmila (2004) [DSD64 + Hi-Res FLAC]

Alexander Vedernikov, The Bolshoi Theatre - Glinka: Ruslan and Lyudmila (2004)
DSD64 (.dsf) 1 bit/2,8 MHz | Time - 203:31 minutes | 4,68 GB
FLAC (tracks) 24-bit/96 kHz | Time - 203:31 minutes | 4,09 GB
Studio Master, Official Digital Download | Artwork: Digital booklet
Fairy opera in 3 parts, 5 acts

Alexander Vedernikov and a large cast of musicians, soloists and chorus singers from the Bolshoi Theatre in Moscow deliver Glinka's masterpiece Ruslan and Lyudmila in the original authorial version. This triple album was recorded live in Moscow over four nights in April 2003, the live performances and now this recording garnering international acclaim.

Mikhail Glinka's opera Ruslan and Lyudmila is a landmark work in the history of Russian opera, yet the number of complete recordings made of this work can be counted on one hand. This is in spite of Ruslan and Lyudmila's popular overture and a variety of oft-recorded excerpts derived from the opera. Part of the problem is textual, as the original Glinka manuscript was accidentally destroyed through means that are historically still rather murky. This new Pentatone recording is the first to benefit from a new critical edition of Ruslan and Lyudmila prepared by Russian musicologists Nadezhda Taterina and Evgeny Lavashev, a condition explained in detail in a confusingly translated portion of the massive 183-page booklet that comes with this set.

Apart from the confusing booknote, everything else about this set is something to write home to "Mom" about, especially if she lives in Russia. The recording, made at the Bolshoi Theater in Moscow, is absolutely stunning – you really feel as though you are at the opera house watching Ruslan and Lyudmila being performed. The cast is very good; it is worth singling out soprano Ekaterina Morozova, who is entrusted to the difficult and pivotal role of Lyudmila. Morozova gets off to a rough start, but quickly finds her way and is outstanding for the balance of the set. The Bolshoi Theater Orchestra under Alexander Vedernikov sounds splendid rendering the orchestral component of the score, significant as there are a lot of purely instrumental passages in Ruslan and Lyudmila, at least 45 minutes' worth of the total opera. If the listener has ever wanted to hear what Glinka's Ruslan and Lyudmila is all about, then this Pentatone set is automatically your first choice for the work.

Tracklist:

01 - Act 1 Overture
02 - No 1: Introduction: "Dela davno minuvsikh dnei"
03 - "Est'pustynnyi kraj"
04 - No. 2: Lyudmila's Cavatina: "Grustno mne, roditel' dorogoi"
05 - No. 3: Finale: "Chada rodimye"
06 - "Chto sluchilos"
07 - No. 4: Entr'acte
08 - No. 5: Finn's Ballad: "Dobro pozhalovat', moi syn"
09 - No. 6: Duet of Finn and Ruslan: "Blagodaryu tebya, moi divnyi pokrovitel"
10 - No. 7: Scene and Farlaf's Rondo: "Ya ves' drozhu"
11 - Rondo: "Blizok uz chas torzhestva moego"
12 - No. 8: Ruslan's aria: "O pole, pole"
13 - "Dai, Perun, bulatnyi mech"
14 - No. 9: Scene with the Head: "Kto zdes' bluzhdaet"
15 - No. 10: Finale: The Tale of the Head: "Nas bylo dvoe, brat moi i ya"
16 - Act 3: No. 11: Entr'acte
17 - No. 12: Persian Chrous: "Lozhitsya v pole mrak"
18 - Gorislava's Scene and Cavatina: "Kakie sladostnye zvuki"
19 - No. 14: Ratmir's Aria: "I zhar, i znoi smenila nochi ten"
20 - No. 15: Dances
21 - No. 16: Finale: "O moi Ratmir!"
22 - "Vityazi! Kovarnaya Naina
23 - No. 17: Entr'acte
24 - No. 18: Lyudmila's Scene and Aria:"Vdali ot milogo"
25 - "Akh ty dolya, dolushka"
26 - No 19: March of Chernomor
27 - No. 20: Oriental Dances: a:Turkish Dance (Allegretto)
28 - b: Arabian Dance (allegro con spirito)
29 - c: Lesginka (Caucasian Dance)
30 - No. 21: Chorus: "Pogibnet, nezhannyij prishlets!"
31 - No. 22: Finale: "Pobeda, pobeda, Lyudmila"
32 - No. 23: Entr'acte
33 - No. 24: Ratmir's Romance: "Ona mne zhizn', ona mne radost"
34 - No. 25: Recitative and Chorus: "Vsyo tikho!"
35 - No. 26: Duet of Ratmir and Finn: "Chto slyshu ya? Lyudmily net?"
36 - No. 27: Finale: "Akh ty svet,- Luydmila"
37 - "Kogo nam bogi shlyut?"
38 - "Slava velikim bogam"

Recorded on April 23-27, 2003 at The Bolshoi Theatre, Moscow, Russia.

Soloists, Chorus & Orchestra of the Bolshoi Theatre Moscow, Conducted by Alexander Vedernikov
Chorus Master: Valery Borisov. Conductor: Igor Dronov.
Concertmaster: Dmitry Khakhamov.

Glass harmonica: Igor Sklyarov & Timofei Vinkovsky
Flute: Sergei Balashov
Oboe: Sofia Belyaeva
English horn: Vladislav Komissarchuk
Clarinet: Alexei Bogorad

Ruslan – Taras Shtonda (Bass-baritone)
Lyudmila – Ekaterina Morozova (Soprano)
Svetosar – Vadim Lynkovsky (Bass)
Ratmir – Aleksandra Durseneva (Contralto)
Finn – Vitaly Panfilov (Tenor)
Gorislava – Maria Gavrilova (Soprano)
Farlaf – Valery Gilmanov (Bass)
Bayan – Maksim Paster (Tenor)
Naina – Irina Dolzhenko (Mezzo-soprano)


Analyzed: Soloists, Chorus & Orchestra Bolshoi Theatre Moscow, Alexander Vedernikov / Glinka: Ruslan and Lyudmila
––––––––––––––––––––––––––––––––––––––––

DR Peak RMS Duration Track
––––––––––––––––––––––––––––––––––––––––
DR14 -10.37 dB -28.60 dB 5:19 01-Act 1 Overture
DR17 -7.50 dB -29.44 dB 7:03 02-No 1: Introduction: "Dela davno minuvsikh dnei"
DR14 -6.04 dB -26.59 dB 7:58 03-"Est'pustynnyi kraj"
DR14 -9.99 dB -29.26 dB 8:01 04-No. 2: Lyudmila's Cavatina: "Grustno mne, roditel' dorogoi"
DR15 -11.18 dB -29.51 dB 6:03 05-No. 3: Finale: "Chada rodimye"
DR15 -7.54 dB -28.48 dB 8:40 06-"Chto sluchilos"
DR14 -15.34 dB -32.32 dB 3:12 07-No. 4: Entr'acte
DR16 -9.45 dB -29.24 dB 8:30 08-No. 5: Finn's Ballad: "Dobro pozhalovat', moi syn"
DR14 -12.71 dB -30.39 dB 2:05 09-No. 6: Duet of Finn and Ruslan: "Blagodaryu tebya, moi divnyi pokrovitel"
DR14 -15.07 dB -31.58 dB 4:14 10-No. 7: Scene and Farlaf's Rondo: "Ya ves' drozhu"
DR16 -9.29 dB -29.22 dB 3:49 11-Rondo: "Blizok uz chas torzhestva moego"
DR13 -16.91 dB -31.80 dB 6:18 12-No. 8: Ruslan's aria: "O pole, pole"
DR14 -10.58 dB -28.89 dB 4:44 13-"Dai, Perun, bulatnyi mech"
DR14 -12.21 dB -31.57 dB 2:34 14-No. 9: Scene with the Head: "Kto zdes' bluzhdaet"
DR15 -8.62 dB -28.99 dB 3:32 15-No. 10: Finale: The Tale of the Head: "Nas bylo dvoe, brat moi i ya"
DR13 -12.98 dB -30.12 dB 2:41 16-Act 3: No. 11: Entr'acte
DR12 -16.72 dB -32.17 dB 4:41 17-No. 12: Persian Chrous: "Lozhitsya v pole mrak"
DR16 -8.39 dB -30.18 dB 4:37 18-Gorislava's Scene and Cavatina: "Kakie sladostnye zvuki"
DR16 -11.51 dB -31.00 dB 11:49 19-No. 14: Ratmir's Aria: "I zhar, i znoi smenila nochi ten"
DR15 -11.72 dB -31.17 dB 13:03 20-No. 15: Dances
DR16 -9.37 dB -29.71 dB 6:24 21-No. 16: Finale: "O moi Ratmir!"
DR14 -12.74 dB -29.99 dB 4:21 22-"Vityazi! Kovarnaya Naina
DR13 -15.50 dB -31.10 dB 1:36 23-No. 17: Entr'acte
DR14 -12.80 dB -30.69 dB 5:04 24-No. 18: Lyudmila's Scene and Aria:"Vdali ot milogo"
DR15 -8.85 dB -28.45 dB 10:17 25-"Akh ty dolya, dolushka"
DR15 -10.89 dB -29.43 dB 4:54 26-No 19: March of Chernomor
DR13 -10.41 dB -29.18 dB 2:15 27-No. 20: Oriental Dances: a:Turkish Dance (Allegretto)
DR15 -10.39 dB -29.60 dB 1:41 28-b: Arabian Dance (allegro con spirito)
DR15 -9.74 dB -28.62 dB 3:13 29-c: Lesginka (Caucasian Dance)
DR15 -8.51 dB -26.96 dB 3:12 30-No. 21: Chorus: "Pogibnet, nezhannyij prishlets!"
DR16 -9.72 dB -30.46 dB 7:19 31-No. 22: Finale: "Pobeda, pobeda, Lyudmila"
DR13 -14.76 dB -31.37 dB 2:44 32-No. 23: Entr'acte
DR13 -16.46 dB -31.83 dB 6:38 33-No. 24: Ratmir's Romance: "Ona mne zhizn', ona mne radost"
DR14 -14.13 dB -31.33 dB 1:50 34-No. 25: Recitative and Chorus: "Vsyo tikho!"
DR14 -13.62 dB -31.09 dB 6:18 35-No. 26: Duet of Ratmir and Finn: "Chto slyshu ya? Lyudmily net?"
DR15 -10.17 dB -29.89 dB 5:10 36-No. 27: Finale: "Akh ty svet,- Luydmila"
DR16 -9.77 dB -29.85 dB 4:35 37-"Kogo nam bogi shlyut?"
DR14 -5.18 dB -25.55 dB 7:10 38-"Slava velikim bogam"
––––––––––––––––––––––––––––––––––––––––

Number of tracks: 38
Official DR value: DR15

Samplerate: 2822400 Hz / PCM Samplerate: 176400 Hz
Channels: 2
Bits per sample: 1
Bitrate: 5645 kbps
Codec: DSD64
================================================================================


Thanks to the Original customer!