Orchestre National de Lille & Alexandre Bloch - Mahler: Symphony No. 7 (2020) [Official Digital Download 24/96]

Posted By: delpotro
Orchestre National de Lille & Alexandre Bloch - Mahler: Symphony No. 7 (2020) [Official Digital Download 24/96]

Orchestre National de Lille & Alexandre Bloch - Mahler: Symphony No. 7 (2020)
FLAC (tracks) 24-bit/96 kHz | Front Cover & Digital Booklet | Time - 74:14 minutes | 1,28 GB
Classical | Label: Alpha Classics, Official Digital Download

Alexandre Bloch, who has been Music Director of the Orchestre National de Lille since 2016, has chosen to devote a whole season of concerts to Mahler's symphonies. The Seventh (1904-05) is the most rarely recorded of the cycle unjustly, because this work later nicknamed Song of the Night testifies as clearly as its companions to the metaphysical grandiloquence that haunted Mahler during its gestation. From the gloomy Adagio of the first movement to the thundering Rondo that concludes the work, Alexandre Bloch and his orchestra lead us from the anguish of twilight to the ecstasies of dawn.

Tracklist:
1. Symphony No. 7 in E Minor: I. Langsam (21:01)
2. Symphony No. 7 in E Minor: II. Nachtmusik (14:58)
3. Symphony No. 7 in E Minor: III. Scherzo (09:47)
4. Symphony No. 7 in E Minor: IV. Nachtmusik (11:36)
5. Symphony No. 7 in E Minor: V. Rondo - Finale (16:50)

foobar2000 1.4.1 / Dynamic Range Meter 1.1.1
log date: 2020-09-26 14:59:25

––––––––––––––––––––––––––––––––––––––––
Analyzed: Orchestre National de Lille, Alexandre Bloch / Symphony No. 7
––––––––––––––––––––––––––––––––––––––––

DR Peak RMS Duration Track
––––––––––––––––––––––––––––––––––––––––
DR12 -0.50 dB -16.82 dB 21:02 01/5-Symphony No. 7 in E Minor: I. Langsam
DR16 -0.50 dB -22.22 dB 14:58 02/5-Symphony No. 7 in E Minor: II. Nachtmusik
DR15 -0.50 dB -21.04 dB 9:48 03/5-Symphony No. 7 in E Minor: III. Scherzo
DR14 -2.17 dB -24.70 dB 11:37 04/5-Symphony No. 7 in E Minor: IV. Nachtmusik
DR11 -0.50 dB -16.37 dB 16:51 05/5-Symphony No. 7 in E Minor: V. Rondo - Finale
––––––––––––––––––––––––––––––––––––––––

Number of tracks: 5
Official DR value: DR14

Samplerate: 96000 Hz
Channels: 2
Bits per sample: 24
Bitrate: 2549 kbps
Codec: FLAC
================================================================================


Thanks to the Original customer!