Alice Cooper - Greatest Hits (1974/2014) [Official Digital Download 24-bit/192kHz] RE-UP

Posted By: HDV
Alice Cooper - Greatest Hits (1974/2014) [Official Digital Download 24-bit/192kHz] RE-UP

Alice Cooper - Greatest Hits (1974/2014)
FLAC (tracks) 24-bit/192 kHz | Time - 41:39 minutes | 1,62 GB
Studio Master, Official Digital Download | Artwork: Front cover

Alice Cooper's Greatest Hits album features a compilation of hit singles by rock singer songwriter Alice Cooper. Originally released in 1974, this album spans five records featuring the original band: Love It to Death, Killer, School's Out, Billion Dollar Babies, and Muscle of Love. All songs on the album were remixed by Jack Richardson. In 1974 the album reached number 8 on the US Billboard 200 chart.

With the future of the original Alice Cooper band in doubt by mid-1974 (they would soon break up for good with Alice going solo), Warner Bros. decided to issue a best-of compilation entitled Greatest Hits. If you're a newcomer to Alice, this 12-track compilation is a must-hear – all the selections are exceptional. While many have chosen to focus primarily on Cooper's theatrics over the years, the original bandmembers were indeed supreme rock songwriters; such anthems as "I'm Eighteen," "Under My Wheels," "School's Out," and "No More Mr. Nice Guy" are unquestionably among the finest hard rock tracks of all time. And the other selections prove to be just as strong – "Is It My Body," "Desperado," "Be My Lover," "Elected," "Billion Dollar Babies," and "Muscle of Love" are all outstanding as well. The only criticism of the original release is that the collection overlooked the band's key album tracks never issued as singles.


01 - I'm Eighteen
02 - Is It My Body
03 - Desperado
04 - Under My Wheels
05 - Be My Lover
06 - School's Out (Remastered Version)
07 - Hello Hooray
08 - Elected
09 - No More Mr. Nice Guy
10 - Billion Dollar Babies
11 - Teenage Lament '74
12 - Muscle Of Love

Recorded between 1970-1973.

Analyzed: Alice Cooper / Greatest Hits

DR Peak RMS Duration Track
DR11 -1.13 dB -14.61 dB 2:58 01-I'm Eighteen
DR11 -1.36 dB -14.78 dB 2:41 02-Is It My Body
DR12 -1.57 dB -15.54 dB 3:29 03-Desperado
DR13 -0.08 dB -15.14 dB 2:46 04-Under My Wheels
DR12 -1.42 dB -15.58 dB 3:21 05-Be My Lover
DR9 -3.57 dB -14.77 dB 3:30 06-School's Out (Remastered Version)
DR10 -1.85 dB -13.70 dB 4:18 07-Hello Hooray
DR10 -2.26 dB -14.58 dB 4:07 08-Elected
DR10 -1.89 dB -13.86 dB 3:07 09-No More Mr. Nice Guy
DR11 -1.05 dB -13.52 dB 3:43 10-Billion Dollar Babies
DR11 -0.89 dB -14.83 dB 3:54 11-Teenage Lament '74
DR10 -0.80 dB -13.44 dB 3:45 12-Muscle Of Love

Number of tracks: 12
Official DR value: DR11

Samplerate: 192000 Hz
Channels: 2
Bits per sample: 24
Bitrate: 5423 kbps
Codec: FLAC

Thanks to the Original customer!