Alice Cooper - From The Inside - (1978) - Vinyl - {First US Pressing} 24-Bit/96kHz + 16-Bit/44kHz *NEW RIP*

Posted By: vinylhound
Alice Cooper - From The Inside - (1978) - Vinyl - {First US Pressing} 24-Bit/96kHz + 16-Bit/44kHz *NEW RIP*

Alice Cooper - From The Inside (1978)
vinyl rip in 24/96 & 16/44.1 | 865 MB & 253 MB | FLAC | no cue or log (vinyl)
DR Analysis | FF & FP | Full LP Artwork | First US Pressing
Genre: Rock | Warner Bros. Records ~ BSK-3263

From the Inside is the 11th studio album by Alice Cooper, released in 1978. It was inspired by Cooper's stay in a New York sanitarium due to his alcoholism. Each of the characters in the songs were based on actual people Cooper met in the sanitarium. With this album, he saw the addition of three former members of the Elton John band: lyricist Bernie Taupin, guitarist Davey Johnstone and bassist Dee Murray. The lead single from the album was "How You Gonna See Me Now", an early example of a power ballad, which reached #12 in the US' Hot 100 chart. A music video was also created for it. "How You Gonna See Me Now" was released as a single worldwide in late-1978 with a B-side called "No Tricks", a non-album track, which was later included in the 1999 box set The Life and Crimes of Alice Cooper. "From the Inside" was released as a single in the US in early-1979 as a remixed edited version, with "Nurse Rozetta" as its B-side. The remix is also included in The Life and Crimes of Alice Cooper. I have included full scans.

Track Listing

Side 1

1. From The Inside
2. Wish I Were Born In Beverly Hills
3. The Quiet Room
4. Nurse Rozetta
5. Millie And Billie

Side 2

1. Serious
2. How You Gonna See Me Now
3. For Veronica's Sake
4. Jackknife Johnny
5. Inmates (We're All Crazy)


Musicians:

Alice Cooper - vocals
Dick Wagner - guitar
Steve Lukather - guitar
Rick Nielsen - guitar
Davey Johnstone - guitar
Jefferson Kewley - guitar
Jay Graydon - guitar, synthesizer programming
Kenny Passarelli - bass
David Hungate - bass
John Pierce - bass
Dee Murray - bass
Lee Sklar - bass
Rick Schlosser - drums
Dennis Conway - drums
Michael Ricciardella - drums
Jim Keltner - percussion
David Foster - keyboards
Fred Mandel - keyboards
Robbie King - keyboards
Steve Porcaro - synthesizer programming
Marcy Levy - vocals


Technics SL-1200MK2 Turntable
Shure V15VxMR Cartridge
LP Gear SHVN5xMR Super Analogue Stylus
Sonic Bliss Audiophile Turntable Mat
Custom built, all tube phono stage
Creative 0404 USB @ 24 bit / 96khz
Adobe Audition 3.0 for recording software
JBL LSR series studio monitors / subwoofer for playback listening
iZotope RX Advanced 2.02 for any cleaning needed (all done manually)
Adobe Photoshop for scans
mp3tag 2.49 for file tagging
Easy CD-DA Extractor Ultimate 10 v2011.3 for converting files



================================================================================

foobar2000 1.1.9 / Dynamic Range Meter 1.1.1

––––––––––––––––––––––––––––––––––––––––
Analyzed: Alice Cooper / From The Inside
––––––––––––––––––––––––––––––––––––––––

DR Peak RMS Duration Track
––––––––––––––––––––––––––––––––––––––––
DR15 -0.40 dB -16.72 dB 3:55 01-From The Inside
DR15 -0.05 dB -16.26 dB 3:35 02-Wish I Were Born In Beverly Hills
DR14 -1.52 dB -19.25 dB 3:52 03-The Quiet Room
DR15 -1.42 dB -18.91 dB 4:16 04-Nurse Rozetta
DR15 -3.63 dB -22.85 dB 4:10 05-Millie And Billie
DR14 -0.52 dB -16.03 dB 2:42 06-Serious
DR14 -0.33 dB -18.27 dB 3:54 07-How You Gonna See Me Now
DR12 -0.30 dB -15.37 dB 3:35 08-For Veronica's Sake
DR13 -0.82 dB -17.24 dB 3:42 09-Jackknife Johnny
DR14 -0.05 dB -17.30 dB 5:03 10-Inmates (We're All Crazy)
––––––––––––––––––––––––––––––––––––––––

Number of tracks: 10
Official DR value: DR14

Samplerate: 96000 Hz
Channels: 2
Bits per sample: 24
Bitrate: 2857 kbps
Codec: FLAC
================================================================================

Alice Cooper - From The Inside - (1978) - Vinyl - {First US Pressing} 24-Bit/96kHz + 16-Bit/44kHz *NEW RIP*


The files are interchangeable!!!

Please enjoy hearing Alice Cooper's From The Inside as it should be heard on vinyl!!!