All Time Low - Last Young Renegade (2017) [Official Digital Download]

Posted By: HDV
All Time Low - Last Young Renegade (2017) [Official Digital Download]

All Time Low - Last Young Renegade (2017)
FLAC (tracks) 24-bit/48 kHz | Time - 36:30 minutes | 485 MB
Studio Master, Official Digital Download | Artwork: Front cover

"Last Young Renegade" is the seventh studio album by American rock band All Time Low. The band's vocalist/guitarist Alex Gaskarth mentioned the album had "a lot of indirect '80s influence on [it], and we had a lot of fun with analog keyboards". Gaskarth noted David Bowie and Prince as influences on the album. The album debuted at number nine on the US Billboard 200, selling 33,000 units in its first week.


Two years after the business-as-usual Future Hearts, hitherto pop-punk quartet All Time Low make a surprising shift on their seventh set, Last Young Renegade. Much like similar moves by contemporaries Fall Out Boy and Paramore, it's a late-era switch that finds the band expanding its sound into pop-oriented territory where synths and dance beats roam. Influenced by David Bowie, Prince, and the sounds of the '80s, Renegade is All Time Low's attempt at sonic maturation, which pays off with much satisfaction. This is a focused collection of intense emotional energy, but vocal effects, programmed beats, and atmospheric production take center stage instead of raucous riffs and pounding drums. Fans of their classic sound may be left wanting, but enough of that punk attitude remains, preventing this album from being a total curve ball. "Last Young Renegade" and "Dark Side of Your Room" combine Fall Out Boy with the stylings of indie bands like Walk the Moon or Atlas Genius, while "Good Times" recalls the peppiest output from the All-American Rejects and Plain White T's. Venturing even further into the mainstream, "Life of the Party," "Afterglow," and "Ground Control" tackle the arena-sized pop/rock of OneRepublic and the 1975. The latter cut is one of the many highlights, recruiting Tegan and Sara for a touching and shimmering collaboration. While the majority of Renegade is cut from the same pop cloth, "Nice2KnoU" is a knowing gift to the faithful – the album's lone punk blast – an old-school, pogoing floor-shaker sure to please diehards. As the track chugs along, frontman Alex Gaskarth sings "We can't go back to yesterday…One last time for old time's sake." It's a clear declaration from a group with a mission. While they acknowledge their roots, All Time Low have their sights set on the road ahead. Last Young Renegade is that first brave step on a journey where studio sheen and cross-genre influences embellish their ever youthful spirit.

Tracklist:

01 - Last Young Renegade
02 - Drugs & Candy
03 - Dirty Laundry
04 - Good Times
05 - Nice2KnoU
06 - Life Of The Party
07 - Nightmares
08 - Dark Side Of Your Room
09 - Ground Control (feat. Tegan and Sara)
10 - Afterglow

Analyzed: All Time Low / Last Young Renegade
––––––––––––––––––––––––––––––––––––––––

DR Peak RMS Duration Track
––––––––––––––––––––––––––––––––––––––––
DR5 -0.12 dB -7.48 dB 3:34 01-Last Young Renegade
DR3 -0.07 dB -6.11 dB 3:38 02-Drugs & Candy
DR5 0.00 dB -6.85 dB 3:18 03-Dirty Laundry
DR5 -0.08 dB -7.29 dB 3:45 04-Good Times
DR5 0.00 dB -6.94 dB 3:17 05-Nice2KnoU
DR5 -0.10 dB -7.67 dB 3:25 06-Life Of The Party
DR4 -0.08 dB -7.12 dB 4:08 07-Nightmares
DR4 -0.11 dB -6.55 dB 3:26 08-Dark Side Of Your Room
DR6 -0.09 dB -7.87 dB 3:56 09-Ground Control (feat. Tegan and Sara)
DR5 -0.07 dB -7.73 dB 4:04 10-Afterglow
––––––––––––––––––––––––––––––––––––––––

Number of tracks: 10
Official DR value: DR5

Samplerate: 48000 Hz
Channels: 2
Bits per sample: 24
Bitrate: 1742 kbps
Codec: FLAC
================================================================================


Thanks to the Original customer!