The Allman Brothers Band - The 1971 Fillmore East Recordings (2014) [Official Digital Download 24-bit/96kHz]

Posted By: HDV
The Allman Brothers Band - The 1971 Fillmore East Recordings (2014) [Official Digital Download 24-bit/96kHz]

The Allman Brothers Band - The 1971 Fillmore East Recordings (2014)
FLAC (tracks) 24-bit/96 kHz | Time - 365:22 minutes | 7,63 GB
Studio Master, Official Digital Download | Artwork: Front cover

The Allman Brother Band's breakthrough 1971 album at Fillmore East expanded to collector's box set The 1971 Fillmore East Recordings. Universal Music Enterprises and Mercury Records release The Rock and Roll Hall of Fame Band's historic 1971 performances at Bill Graham's iconic New York City venue. The recordings feature all four performances from the legendary weekend of March 12-13, which yielded at Fillmore East, as well as the Allmans' headlining set from the Fillmore East's closing weekend June 27,1971.

Generally considered the career breakthrough, and some would even say pinnacle, of the Allman Brothers' career, the 1971 concert album At Fillmore East was a huge success for the band. A landmark of classic rock, At Fillmore East, recorded over several nights in March 1971, captured the live intensity and almost psychic group interplay between the bandmembers, largely centered on the guitar tête-à-tête of Duane Allman and Dickey Betts. Also integral to the Georgia band's sound were the bluesy, soul-inflected vocals and organ playing of Gregg Allman, on whose shoulders much of the band's future would rest after the tragic death of his brother Duane in a motorcycle accident in October 1971, a mere four days after At Fillmore East was certified gold. However, despite the group's undeniably innovative mix of rock, country, blues, and jazz, it was producer Tom Dowd who helped craft the live sessions into a remarkably kinetic and timely album. Dowd, who had previously helmed the group's second album, 1970's Idlewild South, skillfully edited the group's various performances together, maximizing the best bits and, as in the case of "You Don't Love Me," combined the first section with the last section to form a concise, masterful take. The 2014 six-disc box set The 1971 Fillmore East Recordings brings together all of the unedited recordings the Allman Brothers made during their two-night, four-show stand at the Fillmore East. That means longtime fans get four versions of the band's set opener, "Statesboro Blues," as well as other cuts the group repeated each set. Thankfully, the Allman Brothers rarely played a song the same way twice, and every track here holds something surprising and unexpected to discover. Also included is the group's June 1971 show closing out the Fillmore East for owner Bill Graham, who had decided to shut the venue down. Combine all of the music here, much previously unreleased, with John Lynskey's heartfelt and informative liner notes detailing all of the concert drama, both on stage and off, and The 1971 Fillmore East Recordings ends up working as both a completist anthology and a joyful rock tribute.

Tracklist:

01 - Statesboro Blues (March 12, 1971 - First Show)
02 - Trouble No More (March 12, 1971 - First Show)
03 - Don't Keep Me Wonderin' (March 12, 1971 - First Show)
04 - Done Somebody Wrong (March 12, 1971 - First Show)
05 - In Memory Of Elizabeth Reed (March 12, 1971 - First Show)
06 - You Don't Love Me (March 12, 1971 - First Show)
07 - Statesboro Blues (March 12, 1971 - Second Show)
08 - Trouble No More (March 12, 1971 - Second Show)
09 - Don't Keep Me Wonderin' (March 12, 1971 - Second Show)
10 - Done Somebody Wrong (March 12, 1971 - Second Show)
11 - In Memory Of Elizabeth Reed (March 12, 1971 - Second Show)
12 - You Don't Love Me (March 12, 1971 - Second Show)
13 - Whipping Post (March 12, 1971 - Second Show)
14 - Hot 'Lanta (March 12, 1971 - Second Show)
15 - Statesboro Blues (March 13, 1971 - First Show)
16 - Trouble No More (March 13, 1971 - First Show)
17 - Don't Keep Me Wonderin' (March 13, 1971 - First Show)
18 - Done Somebody Wrong (March 13, 1971 - First Show)
19 - In Memory Of Elizabeth Reed (March 13, 1971 - First Show)
20 - You Don't Love Me (March 13, 1971 - First Show)
21 - Whipping Post (March 13, 1971 - First Show)
22 - Statesboro Blues (March 13, 1971 - Second Show)
23 - One Way Out (March 13, 1971 - Second Show)
24 - Stormy Monday (March 13, 1971 - Second Show)
25 - Hot 'Lanta (March 13, 1971 - Second Show)
26 - Whipping Post (March 13, 1971 - Second Show)
27 - Mountain Jam (March 13, 1971 - Second Show)
28 - Drunken Hearted Boy (feat. Elvin Bishop) (March 13, 1971 - Second Show)
29 - Bill Graham Introduction / Statesboro Blues (June 27, 1971 - Fillmore East Closing Show)
30 - Don't Keep Me Wonderin' (June 27, 1971 - Fillmore East Closing Show)
31 - Done Somebody Wrong (June 27, 1971 - Fillmore East Closing Show)
32 - One Way Out (June 27, 1971 - Fillmore East Closing Show)
33 - In Memory Of Elizabeth Reed (June 27, 1971 - Fillmore East Closing Show)
34 - Midnight Rider (June 27, 1971 - Fillmore East Closing Show)
35 - Hot 'Lanta (June 27, 1971 - Fillmore East Closing Show)
36 - Whipping Post (June 27, 1971 - Fillmore East Closing Show)
37 - You Don't Love Me (June 27, 1971 - Fillmore East Closing Show)

Recorded live March 12-13, June 27, 1971 at the Fillmore East in New York, NY.

Analyzed: The Allman Brothers Band / The 1971 Fillmore East Recordings
––––––––––––––––––––––––––––––––––––––––

DR Peak RMS Duration Track
––––––––––––––––––––––––––––––––––––––––
DR11 -0.36 dB -13.65 dB 4:44 01-Statesboro Blues (1971 - First Show)
DR12 -0.19 dB -13.34 dB 3:48 02-Trouble No More (1971 - First Show)
DR10 -0.44 dB -12.41 dB 3:53 03-Don't Keep Me Wonderin' (1971 - First Show)
DR12 -0.27 dB -14.03 dB 4:25 04-Done Somebody Wrong (1971 - First Show)
DR12 -0.03 dB -14.11 dB 17:38 05-In Memory Of Elizabeth Reed (1971 - First Show)
DR11 -0.27 dB -13.95 dB 14:59 06-You Don't Love Me (1971 - First Show)
DR11 -0.39 dB -12.80 dB 4:29 07-Statesboro Blues (1971 - Second Show)
DR11 -0.53 dB -12.89 dB 4:04 08-Trouble No More (1971 - Second Show)
DR10 -0.51 dB -12.25 dB 3:40 09-Don't Keep Me Wonderin' (1971 - Second Show)
DR12 -0.49 dB -14.79 dB 4:56 10-Done Somebody Wrong (1971 - Second Show)
DR12 -0.50 dB -14.02 dB 18:39 11-In Memory Of Elizabeth Reed (1971 - Second Show)
DR11 -0.32 dB -14.29 dB 19:13 12-You Don't Love Me (1971 - Second Show)
DR10 -0.32 dB -12.56 dB 19:31 13-Whipping Post (1971 - Second Show)
DR10 -0.13 dB -12.98 dB 5:20 14-Hot 'Lanta (1971 - Second Show)
DR10 -0.38 dB -12.01 dB 4:18 15-Statesboro Blues (1971 - First Show)
DR10 -0.36 dB -11.65 dB 3:48 16-Trouble No More (1971 - First Show)
DR10 -0.27 dB -11.98 dB 3:38 17-Don't Keep Me Wonderin' (1971 - First Show)
DR11 -0.42 dB -13.52 dB 4:08 18-Done Somebody Wrong (1971 - First Show)
DR11 -0.10 dB -13.49 dB 13:16 19-In Memory Of Elizabeth Reed (1971 - First Show)
DR10 -0.23 dB -13.45 dB 19:50 20-You Don't Love Me (1971 - First Show)
DR10 -0.10 dB -12.61 dB 17:31 21-Whipping Post (1971 - First Show)
DR10 -0.11 dB -12.75 dB 4:43 22-Statesboro Blues (1971 - Second Show, Part 1)
DR11 -0.43 dB -13.52 dB 4:41 23-One Way Out (1971 - Second Show, Part 1)
DR13 -0.33 dB -16.35 dB 10:39 24-Stormy Monday (1971 - Second Show, Part 1)
DR11 -0.29 dB -13.47 dB 5:32 25-Hot 'Lanta (1971 - Second Show, Part 1)
DR11 -0.45 dB -14.41 dB 23:05 26-Whipping Post (1971 - Second Show, Part 1)
DR11 -0.24 dB -14.58 dB 35:39 27-Mountain Jam (1971 - Second Show, Part 2)
DR11 -0.16 dB -14.69 dB 7:46 28-Drunken Hearted Boy (feat. Elvin Bishop) (1971 - Second Show, Part 2)
DR11 -0.44 dB -13.39 dB 5:32 29-Bill Graham Introduction / Statesboro Blues (1971 - Closing Show)
DR11 -0.50 dB -12.95 dB 3:47 30-Don't Keep Me Wonderin' (1971 - Closing Show)
DR11 -0.45 dB -13.54 dB 3:37 31-Done Somebody Wrong (1971 - Closing Show)
DR12 -0.56 dB -15.28 dB 5:25 32-One Way Out (1971 - Closing Show)
DR11 -0.49 dB -13.84 dB 12:34 33-In Memory Of Elizabeth Reed (1971 - Closing Show)
DR10 -0.53 dB -13.50 dB 3:08 34-Midnight Rider (1971 - Closing Show)
DR10 -0.38 dB -13.36 dB 5:48 35-Hot 'Lanta (1971 - Closing Show)
DR11 -0.34 dB -13.97 dB 20:15 36-Whipping Post (1971 - Closing Show)
DR11 -0.26 dB -14.03 dB 17:23 37-You Don't Love Me (1971 - Closing Show)
––––––––––––––––––––––––––––––––––––––––

Number of tracks: 37
Official DR value: DR11

Samplerate: 96000 Hz
Channels: 2
Bits per sample: 24
Bitrate: 2810 kbps
Codec: FLAC
================================================================================


Thanks to the Original customer!