The Allman Brothers Band - At Fillmore East (1971) [MFSL 2015] PS3 ISO + Hi-Res FLAC

Posted By: HDAtall
The Allman Brothers Band - At Fillmore East (1971) [MFSL 2015] PS3 ISO + Hi-Res FLAC

The Allman Brothers Band - At Fillmore East (1971) [MFSL 2015]
PS3 Rip | SACD ISO | DSD64 2.0 > 1-bit/2.8224 MHz | 78:56 minutes | Scans included | 2,1 GB
or FLAC(converted with foobar2000 to tracks) 24bit/44,1 kHz | Full Scans included | 892 MB
Mobile Fidelity Sound Lab # UDSACD 2143

At Fillmore East is the first live album by American rock band the Allman Brothers Band, and their third release overall. As the title indicates, the recording took place at the New York City music venue Fillmore East, which was run by concert promoter Bill Graham. This album was one of 50 recordings chosen in 2004 by the Library of Congress to be added to the National Recording Registry. Rolling Stone included at number 49 in their 2003 list of The 500 Greatest Albums of All Time, describing it as "Rock's greatest live double LP". The album was also included in the books "1001 Albums You Must Hear Before You Die" and "1000 Recordings To Hear Before You Die".

Whereas most great live rock albums are about energy, At Fillmore East is like a great live jazz session, where the pleasure comes from the musicians' interaction and playing. The great thing about that is, the original album that brought the Allmans so much acclaim is as notable for its clever studio editing as it is for its performances. Producer Tom Dowd skillfully trimmed some of the performances down to relatively concise running time (edits later restored on the double-disc set The Fillmore Concerts), at times condensing several performances into one track. Far from being a sacrilege, this tactic helps present the Allmans in their best light, since even if the music isn't necessarily concise (three tracks run over ten minutes, with two in the 20-minute range), it does showcase the group's terrific instrumental interplay, letting each member (but particularly guitarist Duane and keyboardist/vocalist Gregg) shine.

Tracklist:

01 - Statesboro Blues
02 - Done Somebody Wrong
03 - Stormy Monday
04 - You Don't Love Me
05 - Hot 'Lanta
06 - In Memory Of Elizabeth Reed
07 - Whipping Post

Mastered by Rob LoVerve at Mobile Fidelity Sound Lab, Sebastopol, CA.

foobar2000 1.4.3 / Dynamic Range Meter 1.1.1

––––––––––––––––––––––––––––––––––––––––
Analyzed: THE ALLMAN BROTHERS BAND / At Fillmore East
––––––––––––––––––––––––––––––––––––––––

DR Peak RMS Duration Track
––––––––––––––––––––––––––––––––––––––––
DR13 -6.85 dB -23.59 dB 4:21 01-Statesboro Blues
DR13 -6.29 dB -23.93 dB 4:36 02-Done Somebody Wrong
DR15 -6.88 dB -27.64 dB 8:51 03-Stormy Monday
DR15 -6.20 dB -25.61 dB 19:23 04-You Don't Love Me
DR13 -6.61 dB -23.72 dB 5:23 05-Hot 'Lanta
DR13 -6.43 dB -22.92 dB 13:08 06-In Memory Of Elizabeth Reed
DR14 -6.69 dB -24.71 dB 23:15 07-Whipping Post
––––––––––––––––––––––––––––––––––––––––

Number of tracks: 7
Official DR value: DR14

Samplerate: 88200 Hz
Channels: 2
Bits per sample: 24
Bitrate: 5645 kbps
Codec: DSD64


Thanks to PS³SACD!
Uncompressed SACD ISO size > 3,16 GB
>