Anouar Brahem - The Astounding Eyes Of Rita (2009/2015) [Official Digital Download]

Posted By: HDV
Anouar Brahem - The Astounding Eyes Of Rita (2009/2015) [Official Digital Download]

Anouar Brahem - The Astounding Eyes Of Rita (2009/2015)
FLAC (tracks) 24-bit/44,1 kHz | Time - 53:29 minutes | 509 MB
Studio Master, Official Digital Download | Artwork: Digital booklet

The Astounding Eyes of Rita is an album by oud player and composer Anouar Brahem recorded in Italy in 2008 and released on the ECM label in 2009. Writing for The Guardian reviewer John Fordham observed "In recent years, Brahem's work has been more refined and reflective than groove-inclined, but this vivacious quartet set marks a return to the chemistry of Thimar, and it's a richly varied and often thrilling piece of world-jazz".

A delightful new project, assembled by Tunisian oud master Brahem with producer Manfred Eicher. Combination of bass clarinet with oud suggests a link to Anouar’s “Thimar” trio, but this East/West line-up often feels closer to the more traditionally-inclined sounds of “Barzakh” or “Conte de l’Incroyable Amour”. Klaus Gesing, from Norma Winstone’s Trio, and Björn Meyer, from Nik Bärtsch’s Ronin, are both players with an affinity for musical sources beyond jazz, and they interact persuasively inside Brahem’s music. A dance of dark, warm sounds, urged onward by the darbouka and frame drum of Lebanaese percussionist Khaled Yassine. The album is dedicated to the memory of Palestinian poet Mahmoud Darwish.

Tracklist:

01 - The Lover Of Beirut
02 - Dance With Waves
03 - Stopover At Djibouti
04 - The Astounding Eyes Of Rita
05 - Al Birwa
06 - Galilee Mon Amour
07 - Waking State
08 - For No Apparent Reason

Produced by Manfred Eicher. Engineer: Stefano Amerio.
Recorded in October 2008 Artesuono Studio, Udine.

Musicians:
Anouar Brahem - oud
Klaus Gesing - bass clarinet
Björn Meyer - bass
Khaled Yassine - darbouka, bendir


Analyzed: Anouar Brahem / The Astounding Eyes Of Rita
––––––––––––––––––––––––––––––––––––––––

DR Peak RMS Duration Track
––––––––––––––––––––––––––––––––––––––––
DR13 -0.30 dB -17.24 dB 7:44 01-The Lover Of Beirut
DR11 -0.30 dB -14.66 dB 3:57 02-Dance With Waves
DR12 -0.29 dB -15.58 dB 6:34 03-Stopover At Djibouti
DR11 -0.30 dB -14.05 dB 8:42 04-The Astounding Eyes Of Rita
DR11 -0.30 dB -14.62 dB 4:52 05-Al Birwa
DR12 -0.30 dB -15.38 dB 7:17 06-Galilee Mon Amour
DR13 -0.30 dB -17.09 dB 7:48 07-Waking State
DR12 -0.30 dB -15.18 dB 6:35 08-For No Apparent Reason
––––––––––––––––––––––––––––––––––––––––

Number of tracks: 8
Official DR value: DR12

Samplerate: 44100 Hz
Channels: 2
Bits per sample: 24
Bitrate: 1289 kbps
Codec: FLAC
================================================================================


Thanks to the Original customer!

.