Amythyst Kiah - Wary + Strange (2021) [Official Digital Download 24/96]

Posted By: delpotro
Amythyst Kiah - Wary + Strange (2021) [Official Digital Download 24/96]

Amythyst Kiah - Wary + Strange (2021)
FLAC (tracks) 24-bit/96 kHz | Front Cover | Time - 41:05 minutes | 805 MB
Folk, Soul, Blues, Female Vocal | Label: Rounder Records, Official Digital Download

Amythyst Kiah is redefining the limits of roots music. Today, the mould-shattering singer / songwriter who Rolling Stone calls “one of Americana’s great up-and-coming secrets,” makes her Rounder Records debut with the release of a radically reimagined version of her song “Black Myself.”

With an unforgettable voice that’s both unfettered and exquisitely controlled, Amythyst’s ability to cross boundaries is born from struggle. Growing up a Black and LGBTQ+ woman in the Bible Belt, she experienced severe social anxiety, grief, alienation - and ultimately, the hard-won triumph of total self-acceptance.

Tracklist:
1. Soapbox (01:36)
2. Black Myself (03:21)
3. Wild Turkey (04:32)
4. Hangover Blues (04:04)
5. Fancy Drones (Fracture Me) (03:37)
6. Firewater (03:39)
7. Tender Organs (04:45)
8. Ballad Of Lost (05:14)
9. Sleeping Queen (03:51)
10. Opaque (03:47)
11. Soapbox (Reprise) (02:35)

foobar2000 1.4.1 / Dynamic Range Meter 1.1.1
log date: 2021-06-17 17:27:56

––––––––––––––––––––––––––––––––––––––––
Analyzed: Amythyst Kiah / Wary + Strange
––––––––––––––––––––––––––––––––––––––––

DR Peak RMS Duration Track
––––––––––––––––––––––––––––––––––––––––
DR11 -1.22 dB -14.19 dB 1:37 01/11-Soapbox
DR4 -0.30 dB -6.51 dB 3:21 02/11-Black Myself
DR6 -0.30 dB -10.80 dB 4:32 03/11-Wild Turkey
DR6 -0.30 dB -7.69 dB 4:05 04/11-Hangover Blues
DR6 -0.30 dB -7.37 dB 3:38 05/11-Fancy Drones (Fracture Me)
DR9 -0.22 dB -12.04 dB 3:40 06/11-Firewater
DR6 -0.30 dB -8.45 dB 4:45 07/11-Tender Organs
DR6 -0.30 dB -7.56 dB 5:14 08/11-Ballad Of Lost
DR6 -0.30 dB -7.07 dB 3:51 09/11-Sleeping Queen
DR4 -0.30 dB -6.67 dB 3:48 10/11-Opaque
DR10 -0.30 dB -14.76 dB 2:35 11/11-Soapbox (Reprise)
––––––––––––––––––––––––––––––––––––––––

Number of tracks: 11
Official DR value: DR7

Samplerate: 96000 Hz
Channels: 2
Bits per sample: 24
Bitrate: 2300 kbps
Codec: FLAC
================================================================================


Thanks to the Original customer!