Tags
Language
Tags

Ana Caram - Blue Bossa (2001) [Official Digital Download 24bit/96Hz]

Posted By: HDV
Ana Caram - Blue Bossa (2001) [Official Digital Download 24bit/96Hz]

Ana Caram - Blue Bossa (2001)
FLAC (tracks) 24 bit/96 kHz | Time - 47:15 minutes | 977 MB
Studio Master, Official Digital Download | Artwork: Digital booklet

Brazilian siren Ana Caram shares this "retro"-spective musical performance in celebration of the brilliant marriage between Brazilian song and America's "cool jazz". The result? A very cool glimpse into the bossa nova scene of a 1960s jazz club, and with Chesky's state-of-the-art recording technology, you have the best seat in the house.

Ana Caram is an excellent singer and guitarist of Brazilian music, but this set lacks any real surprises. She only plays guitar on one song, sticking to singing while being backed by a rhythm section and the saxophones of Paulo Levi. The selections all date from the 1960s (other than her original "Pura Luz") and Caram is mostly cast in the role of Astrud Gilberto, performing Jobim tunes (including "Desafinado," "Corcovado," and "Triste") and other tunes from the era, including "Blue Bossa," "Fly Me to the Moon," and Baden Powell's "So Por Amor." The results are pleasant but very predictable, with no real chances being taken nor any fresh light shone on the veteran warhorses.

Tracklist:

01 - Desafinado
02 - Blue Bossa
03 - Triste
04 - Corcovado
05 - So Tinha que Ser Com Voce
06 - Inutil Paisagem
07 - Fly Me to the Moon
08 - Anjo de Mim
09 - Telefone
10 - O Vento
11 - So Por Amor
12 - Para Luz

Produced by David Chesky & Clifford Korman. Engineered by Rick Eckerle & Barry Wolifson.
Recorded on March 6-8, 2001 at St. Peter's Church, Chelsea, New York City.
Mastering Engineer: Nicholas Prout.

Musicians:
Ana Caram - vocals, rhythm guitar on "7"
Clifford Korman - fender rhodes
Paulo Levi - saxophone
Nelson Faria - guitar
David Finck - bass
Joe Fitzgerald - bass
Paulinho Braga - drums

Analyzed: Ana Caram / Blue Bossa
––––––––––––––––––––––––––––––––––––––––

DR Peak RMS Duration Track
––––––––––––––––––––––––––––––––––––––––
DR14 -0.06 dB -18.61 dB 4:23 01-Desafinado
DR14 -0.47 dB -18.06 dB 4:28 02-Blue Bossa
DR14 -0.70 dB -19.13 dB 3:28 03-Triste
DR14 -0.48 dB -20.48 dB 4:04 04-Corcovado
DR13 -2.91 dB -17.97 dB 3:54 05-So Tinha que Ser Com Voce
DR13 -0.68 dB -20.01 dB 4:21 06-Inutil Paisagem
DR13 -2.19 dB -18.97 dB 4:09 07-Fly Me to the Moon
DR12 -4.77 dB -20.93 dB 4:20 08-Anjo de Mim
DR12 -0.01 dB -16.71 dB 2:46 09-Telefone
DR12 -1.44 dB -19.96 dB 4:45 10-O Vento
DR13 -0.13 dB -16.75 dB 3:18 11-So Por Amor
DR13 -4.07 dB -20.04 dB 3:19 12-Para Luz
––––––––––––––––––––––––––––––––––––––––

Number of tracks: 12
Official DR value: DR13

Samplerate: 96000 Hz
Channels: 2
Bits per sample: 24
Bitrate: 2797 kbps
Codec: FLAC
================================================================================


Thanks to the Original customer!