Subcategories

Andrea Motis - Emotional Dance (2017) [Official Digital Download 24/96]

Posted By: HDV
Andrea Motis - Emotional Dance (2017) [Official Digital Download 24/96]

Andrea Motis - Emotional Dance (2017)
FLAC (tracks) 24-bit/96 kHz | Time - 62:26 minutes | 1,27 GB
Studio Master, Official Digital Download | Artwork: Digital booklet

Barcelona trumpeter/singer Andrea Motis has sounded and looked like a mainstream jazz star since her teens. She is now 21, and her major-label debut features a Spanish band led by her teacher and bassist/saxist Joan Chamorro, plus American guests including saxophonist Joel Frahm and accordionist Gil Goldstein.

A raft of standard songs include You’d Be So Nice to Come Home To, He’s Funny That Way and a spirited Never Will I Marry, which Motis handles with an impulsive abandon on both vocals and trumpet, in contrast to the pristine cool of much of the set. She catches a punchily hard-boppish 60s Blue Note trumpet feel on Horace Silver’s Señor Blues and her own instrumental Save The Orangutan, and a mature vocal expressiveness on Brazilian mood-pieces. She does occasionally sound like an artist still blinking in an unexpected spotlight, and her material and methods are very traditional. But this is an engaging session, and full of pithy soloing from the participants.

Tracklist:

01 - He's Funny That Way
02 - I Didn't Tell Them Why
03 - Matilda
04 - Chega De Saudade
05 - If You Give Them More Than You Can
06 - Never Will I Marry
07 - An Emotional Dance
08 - You'd Be So Nice To Come Home To
09 - La Gavina
10 - Baby Girl
11 - Save The Orangutan
12 - I Remember You
13 - Señor Blues
14 - Louisiana O Els Camps De Coto

Analyzed: Andrea Motis / Emotional Dance
––––––––––––––––––––––––––––––––––––––––

DR Peak RMS Duration Track
––––––––––––––––––––––––––––––––––––––––
DR8 0.00 dB -10.55 dB 4:50 01-He's Funny That Way
DR10 -0.42 dB -11.56 dB 2:30 02-I Didn't Tell Them Why
DR11 -0.42 dB -13.71 dB 6:52 03-Matilda
DR9 -0.42 dB -11.58 dB 5:48 04-Chega De Saudade
DR9 -0.42 dB -12.26 dB 4:05 05-If You Give Them More Than You Can
DR9 -0.42 dB -10.93 dB 3:19 06-Never Will I Marry
DR8 -0.42 dB -11.33 dB 4:33 07-An Emotional Dance
DR8 0.00 dB -10.23 dB 4:21 08-You'd Be So Nice To Come Home To
DR7 -0.42 dB -9.95 dB 4:46 09-La Gavina
DR11 -0.42 dB -13.22 dB 4:23 10-Baby Girl
DR11 -0.42 dB -13.35 dB 4:00 11-Save The Orangutan
DR9 -0.29 dB -12.15 dB 4:31 12-I Remember You
DR8 -0.41 dB -10.40 dB 3:49 13-Señor Blues
DR11 -0.42 dB -13.32 dB 4:38 14-Louisiana O Els Camps De Coto
––––––––––––––––––––––––––––––––––––––––

Number of tracks: 14
Official DR value: DR9

Samplerate: 96000 Hz
Channels: 2
Bits per sample: 24
Bitrate: 2512 kbps
Codec: FLAC
================================================================================


Thanks to the Original customer!