Tags
Language
Tags

Anita Bryant - In Remembrance Of You (1968/2018) [Official Digital Download 24-bit/192kHz]

Posted By: HDV
Anita Bryant - In Remembrance Of You (1968/2018) [Official Digital Download 24-bit/192kHz]

Anita Bryant - In Remembrance Of You (The Story Of A Love Affair) (1968/2018)
FLAC (tracks) 24-bit/192 kHz | Time - 28:14 minutes | 1,04 GB
FLAC (tracks) 24-bit/96 kHz | Time - 28:14 minutes | 633 MB
Studio Master, Official Digital Download | Artwork: Front cover

The cover says: "Here is an album with an exciting difference. For the first time, by the use of carefully selected songs, this recording tells the complete story of a love affair–from the thrill of the first meeting, through the joyous times together and vows forevermore, to the lovers' parting and thoughts of days gone by".

"In Remembrance Of You" was the last pop album that Anita Bryant released on Columbia Records. It is an album with a unique concept - by the use of carefully selected songs, played in sequence, the recording tells the complete story of a love affair - from the thrill of the first meeting, through the joyous times together and vows to love forevermore, to the lovers' parting, and thoughts of days gone by. The final song - the title selection of the album "In Remembrance Of You" was written by Gordon Jenkins, and Anita infuses this song with all the bittersweet emotion of a lost love - the once-in-a-lifetime love that will never come again, the love that can never possibly be replaced.

Tracklist:

01 - Something Wonderful
02 - Something In Your Smile
03 - My Cup Runneth Over
04 - When the Snow Is On the Roses
05 - Never My Love
06 - I Don't See Me In Your Eyes Anymore
07 - Try to Remember
08 - Yellow Days
09 - Yesterday
10 - In Remembrance of You

Arranged & Conducted by Stan Applebaum. Produced by Jay Darrow.

Analyzed: Anita Bryant / In Remembrance of You (The Story Of A Love Affair)
––––––––––––––––––––––––––––––––––––––––

DR Peak RMS Duration Track
––––––––––––––––––––––––––––––––––––––––
DR11 -1.33 dB -15.72 dB 2:39 01-Something Wonderful
DR10 -3.14 dB -15.85 dB 2:57 02-Something In Your Smile
DR9 -3.54 dB -15.29 dB 2:33 03-My Cup Runneth Over
DR9 -2.96 dB -14.78 dB 2:35 04-When the Snow Is On the Roses
DR10 -3.38 dB -15.06 dB 2:25 05-Never My Love
DR9 -3.15 dB -15.22 dB 2:40 06-I Don't See Me In Your Eyes Anymore
DR11 -2.54 dB -15.45 dB 3:15 07-Try to Remember
DR11 -1.81 dB -15.45 dB 2:28 08-Yellow Days
DR10 -2.65 dB -16.27 dB 3:33 09-Yesterday
DR11 -2.04 dB -15.18 dB 3:09 10-In Remembrance of You
––––––––––––––––––––––––––––––––––––––––

Number of tracks: 10
Official DR value: DR10

Samplerate: 192000 Hz
Channels: 2
Bits per sample: 24
Bitrate: 4331 kbps
Codec: FLAC
================================================================================


Thanks to the Original customer!