Anna Netrebko - Opera Arias (2003) [2.0 & 5.0] PS3 ISO + Hi-Res FLAC

Posted By: HDAtall
Anna Netrebko - Opera Arias (2003) [2.0 & 5.0] PS3 ISO + Hi-Res FLAC

Anna Netrebko, Wiener Philharmoniker, Gianandrea Noseda - Opera Arias (2003)
PS3 Rip | SACD ISO | DST64 2.0 & 5.0 > 1-bit/2.8224 MHz | 62:58 minutes | Scans included | 4,26 GB
or FLAC 2.0 (Studio Master, Official Digital Download ) 24bit/88,2 kHz | Digital Booklet | 1,21 GB

This remarkable vocal album, which won the prestigious Amadeus Music Award in 2003, features soprano Anna Netrbko in stunning renditions of works by Puccini, Berlioz, Mozart, Bellini, and Dvorák among others. A multiple Grammy-nominee and the first opera singer ever to be named to the TIME 100 list (Time magazine’s list of the most influential people in the world), Netrebko takes on these masterworks with startling vivacity and vocal virtuosity.

Tracklist:

01 - Mozart: Idomeneo, re di Creta, K.366 / Act 1: "Quando avran fine omai" - "Padre, germani, addio!"
02 - Mozart: Don Giovanni, ossia Il dissoluto punito, K.527 / Act 2: "Crudele!-Ah no, mio bene!" - "Non mi dir, bell'idol" (Donna Anna)
03 - Berlioz: Benvenuto Cellini / Act 1: "Les belles fleures" - "Entre l'amour et le devoir" - Quand j'aurai votre age
04 - Massenet: Manon / Act 3: "Suis-je gentille ainsi?" / "Obéissons, quand leur voix appelle"
05 - Donizetti: Lucia di Lammermoor / Act 1: Ancor non giunse!…Regnava nel silenzio
06 - Bellini: La Sonnambula / Act 1: Care compaggne, et voi, teneri amici … Come per me sereno
07 - Gounod: Faust / Act 3: Chanson du roi de Thule - Air des Bijoux
08 - Dvorak: Rusalka, Op.114 / Act 1: Mesicku na nebi hlubokem
09 - Puccini: La Boheme - Concert Version / Act 1: "Quando me'n vò" (Musette's Waltz)

foobar2000 1.3.15 / Dynamic Range Meter 1.1.1

––––––––––––––––––––––––––––––––––––––––
Analyzed: Anna Netrebko, soprano; Wiener Staatsopernchor (Chorus Master: Ernst Dunshirn), Wiener Philharmoniker, Gianandrea Noseda / Opera Arias
––––––––––––––––––––––––––––––––––––––––

DR Peak RMS Duration Track
––––––––––––––––––––––––––––––––––––––––
DR15 -8.12 dB -31.24 dB 7:22 01-Idomeneo: Recitative and Aria "Quando avran fine omai … Padre, germani, addio!" (Ilia)
DR15 -6.70 dB -29.90 dB 6:37 02-Don Giovanni: Accompanied Recitative and Rondo "Crudele? - Ah no, mio bene! … Non mi dir, bell'idol mio" (Donna Anna)
DR15 -6.06 dB -28.37 dB 7:44 03-Benvenuto Cellini: Cavatina "Les belles fleurs! … Quand j'aurai votre вge" (Teresa)
DR14 -6.01 dB -26.80 dB 6:35 04-Manon: [Air du Cours-la-Reine] "Suis-je gentille ainsi? … Je marche sur tous les chemins … [Gavotte] Obйissons, quand leur voix appelle" (Manon)
DR14 -6.04 dB -27.76 dB 12:42 05-Lucia di Lammermoor: Scene and Cavatina "Ancor non giunse! … Regnava nel silenzio " (Lucia)
DR14 -5.97 dB -27.89 dB 7:44 06-La sonnambula: Recitative and Cavatina "Care compagne, e voi, teneri amici … Come per me sereno" (Amina)
DR15 -6.01 dB -28.66 dB 6:28 07-Faust: Recitative "Les grands seigneurs ont seuls des airs si rйsolus" - Air des Bijoux "Ah! je ris de me voir" (Marguerite)
DR15 -6.04 dB -31.64 dB 5:07 08-Rusalka: Song to the Moon "O moon in the velvet heavens" (Rusalka)
DR12 -6.61 dB -28.48 dB 2:39 09-La bohиme: [Musetta's Waltz] "Quando men vo" (Musetta)
––––––––––––––––––––––––––––––––––––––––

Number of tracks: 9
Official DR value: DR14

Samplerate: 2822400 Hz / PCM Samplerate: 88200 Hz
Channels: 5
Bits per sample: 1
Bitrate: 14112 kbps
Codec: DST64
================================================================================

––––––––––––––––––––––––––––––––––––––––
Analyzed: Anna Netrebko, soprano; Wiener Staatsopernchor (Chorus Master: Ernst Dunshirn), Wiener Philharmoniker, Gianandrea Noseda / Opera Arias
––––––––––––––––––––––––––––––––––––––––

DR Peak RMS Duration Track
––––––––––––––––––––––––––––––––––––––––
DR15 -6.00 dB -25.56 dB 7:22 01-Idomeneo: Recitative and Aria "Quando avran fine omai … Padre, germani, addio!" (Ilia)
DR13 -5.99 dB -24.57 dB 6:37 02-Don Giovanni: Accompanied Recitative and Rondo "Crudele? - Ah no, mio bene! … Non mi dir, bell'idol mio" (Donna Anna)
DR12 -5.96 dB -23.13 dB 7:44 03-Benvenuto Cellini: Cavatina "Les belles fleurs! … Quand j'aurai votre вge" (Teresa)
DR10 -5.95 dB -22.10 dB 6:35 04-Manon: [Air du Cours-la-Reine] "Suis-je gentille ainsi? … Je marche sur tous les chemins … [Gavotte] Obйissons, quand leur voix appelle" (Manon)
DR12 -5.96 dB -23.23 dB 12:42 05-Lucia di Lammermoor: Scene and Cavatina "Ancor non giunse! … Regnava nel silenzio " (Lucia)
DR11 -5.96 dB -22.32 dB 7:44 06-La sonnambula: Recitative and Cavatina "Care compagne, e voi, teneri amici … Come per me sereno" (Amina)
DR13 -5.97 dB -23.47 dB 6:28 07-Faust: Recitative "Les grands seigneurs ont seuls des airs si rйsolus" - Air des Bijoux "Ah! je ris de me voir" (Marguerite)
DR14 -6.42 dB -26.67 dB 5:07 08-Rusalka: Song to the Moon "O moon in the velvet heavens" (Rusalka)
DR11 -5.99 dB -23.20 dB 2:39 09-La bohиme: [Musetta's Waltz] "Quando men vo" (Musetta)
––––––––––––––––––––––––––––––––––––––––

Number of tracks: 9
Official DR value: DR12

Samplerate: 2822400 Hz / PCM Samplerate: 88200 Hz
Channels: 2
Bits per sample: 1
Bitrate: 5645 kbps
Codec: DST64


Thanks to Faunts!
Uncompressed SACD ISO size > 3,99 GB
>