Anna Netrebko - Sempre Libera (2004) [2.0 & 5.1] PS3 ISO + Hi-Res FLAC

Posted By: HDAtall
Anna Netrebko - Sempre Libera (2004) [2.0 & 5.1] PS3 ISO + Hi-Res FLAC

Anna Netrebko, Mahler Chamber Orchestra, Claudio Abbado - Sempre Libera (2004)
PS3 Rip | SACD ISO | DST64 2.0 & 5.1 > 1-bit/2.8224 MHz | 68:59 minutes | Scans included | 4,19 GB
or FLAC 2.0 (Studio Master, Official Digital Download ) 24bit/88,2 kHz | Digital Booklet | 1,26 GB

Anna Netrebko's second disc is even more impressive than her first. She still may not be an absolutely polished, finished artist, but she's working at it and presents here a very satisfying–-even thrilling–-program. She doesn't quite have the stature or insights for Verdi's Violetta yet, but aside from some smudged coloratura in low-lying passages she sings the first act scene quite well (capped with a well-placed, big E-flat). She's close to ideal in the Sonnambula and Puritani excerpts, where her girlishness is entirely right, her coloratura dazzling, and her ability to sound tearful really impressive. The Lucia Mad Scene (also notable here for its use of the glass harmonica for which it was composed in place of the usual flute) is quite wonderful, even if the runs are sometimes not as well-delineated as they should be. And although she's not vocally suited to Desdemona's Willow Song and Ave Maria, she does manage to darken her voice to fit the character and presents a very moving portrait. The disc ends with an utterly charming "O mio babbino caro." Artistry and everything else aside, her voice is just beautiful. Claudio Abbado's leadership is ideal.

Tracklist:

01 - Verdi: La traviata / Act 1: 'E strano!' - 'Ah, fors'e lui'
02 - Verdi: La traviata / Act 1: Sempre libera
03 - Bellini: La Sonnambula / Act 2: Ah! Se una volta sola
04 - Bellini: La Sonnambula / Act 2: Ah, non credea mirarti
05 - Bellini: La Sonnambula / Act 2: Ah! non giunge uman pensiero
06 - Bellini: I Puritani / Act 2: O rendetemi le speme…Qui la voce
07 - Bellini: I Puritani / Act 2: Ah! tu sorridi
08 - Bellini: I Puritani / Act 2: Vien, diletto, e in ciel la luna
09 - Donizetti: Lucia di Lammermoor / Act 2: 'O giusto cielo!' (Act 2)
10 - Donizetti: Lucia di Lammermoor / Act 2: Oihme! Sorge il tremendo
11 - Donizetti: Lucia di Lammermoor / Act 2: 'Ardon gli incensi…' (Act 2)
12 - Donizetti: Lucia di Lammermoor / Act 2: 'Spargi d'amaro pianto' (Act 2)
13 - Verdi: Otello / Act 4: Era piu calmo?
14 - Verdi: Otello / Act 4: 'Piangea cantando nell'erma landa…'
15 - Verdi: Otello / Act 4: Ave Maria, piena di grazia
16 - Puccini: Gianni Schicchi: O mio babbino caro

foobar2000 1.3.15 / Dynamic Range Meter 1.1.1

––––––––––––––––––––––––––––––––––––––––
Analyzed: Anna Netrebko / Sempre Libera
––––––––––––––––––––––––––––––––––––––––

DR Peak RMS Duration Track
––––––––––––––––––––––––––––––––––––––––
DR15 -9.75 dB -35.37 dB 4:55 01-И strano! - Ah, fors' и lui
DR12 -9.01 dB -31.23 dB 3:40 02-Sempre libera
DR15 -16.09 dB -41.37 dB 5:38 03-Ah! Se una volta
DR16 -8.97 dB -35.10 dB 4:48 04-Ah! Non credea
DR12 -8.73 dB -28.64 dB 2:42 05-Ah! Non giunge
DR12 -18.29 dB -39.02 dB 4:36 06-O rendetemi…Qui la voce
DR12 -16.34 dB -37.76 dB 4:03 07-Ah! tu sorridi
DR12 -9.00 dB -31.26 dB 2:56 08-Vien, diletto
DR15 -14.66 dB -40.71 dB 3:19 09-O giusto cielo!
DR15 -11.15 dB -35.94 dB 3:15 10-Ohimи! Sorge il tremendo
DR15 -9.18 dB -34.86 dB 5:01 11-Ardon gli incensi
DR14 -9.01 dB -31.22 dB 3:37 12-Spargi d'amaro pianto
DR14 -19.55 dB -43.31 dB 5:00 13-Era piщ calmo?
DR18 -9.52 dB -38.43 dB 7:03 14-Piangea cantando
DR14 -18.25 dB -43.02 dB 5:37 15-Ave Maria
DR12 -15.14 dB -35.76 dB 2:51 16-O mio babbino
––––––––––––––––––––––––––––––––––––––––

Number of tracks: 16
Official DR value: DR14

Samplerate: 2822400 Hz / PCM Samplerate: 88200 Hz
Channels: 6
Bits per sample: 1
Bitrate: 16934 kbps
Codec: DST64
================================================================================

––––––––––––––––––––––––––––––––––––––––
Analyzed: Anna Netrebko / Sempre Libera
––––––––––––––––––––––––––––––––––––––––

DR Peak RMS Duration Track
––––––––––––––––––––––––––––––––––––––––
DR15 -9.57 dB -30.40 dB 4:55 01-И strano! - Ah, fors' и lui
DR11 -9.25 dB -26.39 dB 3:40 02-Sempre libera
DR14 -15.33 dB -36.22 dB 5:38 03-Ah! Se una volta
DR16 -9.52 dB -31.30 dB 4:48 04-Ah! Non credea
DR11 -8.90 dB -25.86 dB 2:42 05-Ah! Non giunge
DR12 -16.74 dB -33.56 dB 4:36 06-O rendetemi…Qui la voce
DR12 -14.95 dB -32.46 dB 4:03 07-Ah! tu sorridi
DR11 -9.49 dB -26.53 dB 2:56 08-Vien, diletto
DR16 -12.73 dB -35.24 dB 3:19 09-O giusto cielo!
DR14 -9.27 dB -30.85 dB 3:15 10-Ohimи! Sorge il tremendo
DR14 -9.77 dB -30.72 dB 5:01 11-Ardon gli incensi
DR13 -9.40 dB -27.56 dB 3:37 12-Spargi d'amaro pianto
DR13 -15.28 dB -38.03 dB 5:00 13-Era piщ calmo?
DR17 -9.75 dB -33.41 dB 7:03 14-Piangea cantando
DR15 -14.36 dB -37.35 dB 5:37 15-Ave Maria
DR12 -12.47 dB -30.40 dB 2:51 16-O mio babbino
––––––––––––––––––––––––––––––––––––––––

Number of tracks: 16
Official DR value: DR14

Samplerate: 2822400 Hz / PCM Samplerate: 88200 Hz
Channels: 2
Bits per sample: 1
Bitrate: 5645 kbps
Codec: DST64


Thanks to Faunts!
Uncompressed SACD ISO size > 3,94 GB
>