Antonio Carlos Jobim - Wave (1967/2014) [Official Digital Download 24/96]

Posted By: HDV
Antonio Carlos Jobim - Wave (1967/2014) [Official Digital Download 24/96]

Antonio Carlos Jobim - Wave (1967/2014)
FLAC (tracks) 24-bit/96 kHz | Time - 31:09 minutes | 740 MB
Studio Master, Official Digital Download | Artwork: Front cover

The first of three richly-orchestrated, mostly instrumental albums from the late 1960s by bossa nova pioneer Antonio Carlos Jobim. On Wave, released in 1967, Jobim explores jazz influences, recording with jazz legends like Ron Carter and Urbie Green and a large string section under the direction of conductor/arranger Claus Ogerman. The album, engineered by Rudy Van Gelder, became an international hit and appealed to both jazz and easy listening audiences.

When Creed Taylor left Verve/MGM for his own label under the auspices of A&M, he quickly signed Antonio Carlos Jobim and they picked up right where they left off with this stunningly seductive record, possibly Jobim's best. Jobim contributes his sparely rhythmic acoustic guitar, simple melodic piano style, a guest turn at the harpsichord, and even a vocal on "Lamento," while Claus Ogerman lends a romantically brooding hand with the charts. A pair of instant standards are introduced ("Wave," "Triste"), but this album is to be cherished for its absolutely first-rate tunes – actually miniature tone poems – that escaped overexposure and thus sound fresh today. The most beautiful sleeper is "Batidinha," where the intuitive Jobim/Ogerman collaboration reaches its peak. One only wishes that this album were longer; 31 munutes is not enough.

Tracklist:

01 - Wave
02 - The Red Blouse
03 - Look To The Sky
04 - Batidinha
05 - Triste
06 - Mojave
07 - Dialogo
08 - Lamento
09 - Antigua
10 - Captain Bacardi

Analyzed: Antonio Carlos Jobim / Wave
––––––––––––––––––––––––––––––––––––––––

DR Peak RMS Duration Track
––––––––––––––––––––––––––––––––––––––––
DR10 0.00 dB -12.55 dB 2:55 01-Wave
DR11 0.00 dB -13.40 dB 5:04 02-The Red Blouse
DR9 0.00 dB -11.90 dB 2:19 03-Look To The Sky
DR10 0.00 dB -12.95 dB 3:14 04-Batidinha
DR10 0.00 dB -12.07 dB 2:05 05-Triste
DR9 0.00 dB -12.52 dB 2:22 06-Mojave
DR10 0.00 dB -13.91 dB 2:51 07-Dialogo
DR11 0.00 dB -13.72 dB 2:43 08-Lamento
DR11 -0.29 dB -14.17 dB 3:09 09-Antigua
DR12 0.00 dB -14.49 dB 4:27 10-Captain Bacardi
––––––––––––––––––––––––––––––––––––––––

Number of tracks: 10
Official DR value: DR10

Samplerate: 96000 Hz
Channels: 2
Bits per sample: 24
Bitrate: 3333 kbps
Codec: FLAC
================================================================================


Thanks to the Original customer!

.