Tags
Language
Tags
March 2024
Su Mo Tu We Th Fr Sa
25 26 27 28 29 1 2
3 4 5 6 7 8 9
10 11 12 13 14 15 16
17 18 19 20 21 22 23
24 25 26 27 28 29 30
31 1 2 3 4 5 6
Attention❗ To save your time, in order to download anything on this site, you must be registered 👉 HERE. If you do not have a registration yet, it is better to do it right away. ✌

( • )( • ) ( ͡⚆ ͜ʖ ͡⚆ ) (‿ˠ‿)
SpicyMags.xyz

Anton Heiller - J.S. Bach. Organ Works (2004) SACD ISO + DSD64 + Hi-Res FLAC

Posted By: HDAtall
Anton Heiller - J.S. Bach. Organ Works (2004) SACD ISO + DSD64 + Hi-Res FLAC

Anton Heiller - J.S. Bach: Organ Works (2004)
SACD Rip | SACD ISO | DSD64 2.0 > 1-bit/2.8224 MHz | 43:39 minutes | Scans included (PDF) | 1,33 GB
or DSD64 2.0 (from SACD-ISO to Tracks.dsf) > 1-bit/2.8224 MHz | Scans included (PDF packed) | 1,16 GB
or FLAC 2.0 (carefully converted & encoded to tracks) 24bit/88,2 kHz | Scans included (PDF) | 955 MB

Anton Heiller (1923-1979) was one of the great organists of his time. He was also renowned as a keyboard improviser in the tradition of Bach himself, as evidenced in many of the recordings he made for Vanguard Classics.

Vanguard Classics remade this collection of organ warhorses from J.S. Bach (1675-1750) in 2004, redoing their earlier failed stereo collection that originally included the Bach warhorse of all warhorses, the Tocatta and Fuuge in D minor BWV 565. Thankfully, Vangauard left it out of this collection.

The Austrian organist Anton Heiller made this recording on Vangaurd HM 73 and it was also issued as Bach Guild BGS-70675. For the performance on this recording, he selected the organ at the St. Mary Church in Helsingborg in Sweden. It was previously available on CD in the Organ Works by Bach and other recordings of variable quality. This version is the best-sounding one yet, produced by Artemus Records, which purchased the Vanguard Classics line from Omega Records in 2003. A lengthy discussion on this is included in the well-written but difficult to read seven pages of notes that accompany this issue.

Tracklist:

01. Prelude and Fugue, for organ in E minor ("Wedge"), BWV 548 (BC J19)
02. Prelude and Fugue, for organ in A major, BWV 536 (BC J24)
03. Passacaglia and Fugue, for organ in C minor, BWV 582 (BC J79)
04. Fantasy in G, BWV 572

Recorded in 1964 at the St. Mary Church in Helsingborg, Sweden.
SACD Producer & Remix Engineer: David Baker.
SACD Mastering by Jen Wyler.

Is This Volume 1 or 2?
When putting together the materials for this reissue, a problem arose immediately - why is Volume 2 listed as Volume 1? And why is Volume 1 not the Volume 1 listed in our recording index? And why is no Volume 1 noted on the Volume 1 jacket? Devoted Vanguard followers and collectors - whose letters and emails were the deciding factor in our decision to reissue these Heiller recordings - are always eager to point out such errors.
The Organ Works of J.S. Bach, Vol. 1 was assigned to the first recording of Bach's organ music that Heiller recorded for Vanguard, Bach-Vivaldi: Organ Works, BG 637 (mono)/BG 5049 (stereo) after the title was released. The original LP packaging for this title has no indication of any volumes to come in the future. The issue of The Organ Works of J.S. Bach, Vol. 2, BG-674 (mono) and BG 70674 (stereo) was referred to on the original tape boxes and recording "matrix cards" as The Organ Works ol J.S Bach, Vol. 1. Internal documents at Vanguard also refer to this as Volume 1. But when it was issued on LP, it was very distinctly issued as Volume 2. And the recording referred to as Volume 2 was issued to the public on LP as Volume 3 (BG 675/70675).
On our cover, we have skirted the issue by simply listing the works. We have, however, placed the LP cover on the back the packaging to help allay any confusion. But when again, we have included a copy of the original box in the internal packaging to offer complete disclosure and probably create just a bit more confusion.
foobar2000 1.6.11 / Dynamic Range Meter 1.1.1

––––––––––––––––––––––––––––––––––––––––
Analyzed: J.S. Bach / J.S. Bach: Organ Works, Vol. 1
––––––––––––––––––––––––––––––––––––––––

DR Peak RMS Duration Track
––––––––––––––––––––––––––––––––––––––––
DR11 -6.65 dB -20.48 dB 13:25 01-Prelude & Fugue in E min. ("Wedge")
DR11 -12.47 dB -25.91 dB 7:14 02-Prelude & Fugue in A
DR12 -6.21 dB -22.47 dB 13:28 03-Passacaglia & Fugue in C minor
DR11 -6.29 dB -19.56 dB 9:32 04-Fantasy in G
––––––––––––––––––––––––––––––––––––––––

Number of tracks: 4
Official DR value: DR11

Samplerate: 2822400 Hz / PCM Samplerate: 176400 Hz
Channels: 2
Bits per sample: 1
Bitrate: 5645 kbps
Codec: DSD64


Thanks to PhantomBlot!
Uncompressed SACD ISO size > 1,75 GB
>