Tags
Language
Tags

Antonio Carlos Jobim - The Composer Of Desafinado, Plays (1963) [Japanese Limited SHM-SACD 2011] PS3 ISO + DSD64 + Hi-Res FLAC

Posted By: HDAtall
Antonio Carlos Jobim - The Composer Of Desafinado, Plays (1963) [Japanese Limited SHM-SACD 2011] PS3 ISO + DSD64 + Hi-Res FLAC

Antonio Carlos Jobim - The Composer Of Desafinado, Plays (1963) [Japanese Limited SHM-SACD 2011]
PS3 Rip | SACD ISO | DSD64 2.0 > 1-bit/2.8224 MHz | 35:35 minutes | Scans included | 1,03 GB
or DSD64 2.0 (from SACD-ISO to Tracks.dsf) > 1-bit/2.8224 MHz | Full Scans included | 938 MB
or FLAC (carefully converted & encoded to tracks) 24bit/48 kHz | Full Scans included | 451 MB

The Composer of Desafinado, Plays is Antonio Carlos Jobim's debut album originally released in 1963. The Brazilian musician and composer was known as one of the primary influences behind the creation of the bossa nova musical style. The record features all original compositions, including "The Girl from Ipanema" one of the most widely recorded songs of all time.

In his first American album, Antonio Carlos Jobim presents a dozen of his songs, each one destined to become a standard – an astounding batting average. Jobim, who claimed to have been out of practice at the time of the session, merely plays single notes on the piano with one hand, punctuated by chords now and then, sticking to his long, undulating melodies with a few passages of jazz improvisation now and then. Yet it is a lovely idea, not a gesture is wasted. Arranger Claus Ogerman unveils many of the trademarks that would define his Creed Taylor-produced albums with Jobim – the soaring, dying solo flute and spare, brooding unison string lines widening into lush harmony; flutes doubling on top of Jobim's piano chords – again with an exquisitely spare touch. The songs include "Desafinado," "Corcovado," "Chega de Saudade" (No More Blues), "The Girl From Ipanema," "Meditation," "One Note Samba," and half-a-dozen others (every one of which is included on The Man From Ipanema set).

Tracklist:

01. The Girl From Ipanema
02. O Morro
03. Agua De Beber
04. Dreamer
05. Fabela
06. Insensatez
07. Corcovado
08. One Note Samba
09. Meditation
10. Jazz Samba (So Danco Samba)
11. Chega De Saudade
12. Desafinado

Personnel
Antônio Carlos Jobim - piano, guitar, vocals
Leo Wright - flute, alto saxophone
George Duvivier - double bass
Jimmy Cleveland - trombone
Edison Machado - drums
Claus Ogerman - conductor

Universal Japan # UCGU-9021

foobar2000 1.6.10 / Dynamic Range Meter 1.1.1

––––––––––––––––––––––––––––––––––––––––
Analyzed: Antonio Carlos Jobim / The Composer Of Desafinado, Plays
––––––––––––––––––––––––––––––––––––––––

DR Peak RMS Duration Track
––––––––––––––––––––––––––––––––––––––––
DR12 -9.95 dB -26.24 dB 2:42 01-The Girl From Ipanema
DR11 -7.85 dB -23.54 dB 3:37 02-O Morro
DR12 -5.57 dB -23.63 dB 2:52 03-Agua De Beber
DR12 -7.13 dB -24.34 dB 2:37 04-Dreamer
DR12 -7.15 dB -24.95 dB 3:23 05-Fabela
DR12 -7.44 dB -23.63 dB 2:55 06-Insensatez
DR11 -7.91 dB -24.44 dB 2:27 07-Corcovado
DR12 -7.49 dB -24.36 dB 2:16 08-One Note Samba
DR11 -6.27 dB -21.95 dB 3:17 09-Meditation
DR12 -7.32 dB -24.77 dB 2:22 10-Jazz Samba (So Danco Samba)
DR13 -5.85 dB -24.55 dB 4:21 11-Chega De Saudade
DR11 -8.41 dB -26.15 dB 2:46 12-Desafinado
––––––––––––––––––––––––––––––––––––––––

Number of tracks: 12
Official DR value: DR12

Samplerate: 2822400 Hz / PCM Samplerate: 176400 Hz
Channels: 2
Bits per sample: 1
Bitrate: 5645 kbps
Codec: DSD64


Thanks to PS³SACD!
Uncompressed SACD ISO size > 1,42 GB
>