Tags
Language
Tags

Aquarium & BG - Greatest Hits (2015) [Official Digital Download]

Posted By: HDV
Aquarium & BG - Greatest Hits (2015) [Official Digital Download]

Aquarium & BG / Аквариум & Борис Гребенщиков - Greatest Hits (2015)
FLAC (tracks) 24-bit/48 kHz | Time - 77:02 minutes | 1000 MB
Studio Master, Official Digital Download | Artwork: CD Covers

Aquarium or Akvarium (Russian: Аквариум) is a Russian rock group formed in Leningrad, USSR (now Saint Petersburg, Russia) in 1972. The band had many member changes over its 40-year history, and at the end the only remaining original member was lead singer and founder Boris Grebenshchikov, also colloquially known as BG after his initials. He is often called as 'Grandfather of Russian Rock'. Aquarium were strongly influenced by Western rock music as well as by new wave and reggae artists. This was reflected in the band's often complex compositions and wide-ranging lyric themes, even including references to Celtic and Indian cultures.

11 мая 2015 года, накануне своих североамериканских гастролей Борис Гребенщиков, по собственному скромному определению - «посол рок-н-ролла в неритмичной стране», выпускает сборник своих самых популярных песен. Новый сборник, с лаконичным названием, состоит из двадцати одной песни, написанной и записанной в разные периоды существования группы «Аквариум». Нашлось в трек-листе место и для редких записей. Так, например, пластинку открывает первоначальная версия композиции «Поезд в огне», которая была использована в качестве звуковой дорожки для известного клипа. Как сообщается в пресс-релизе, в дальнейшем из архивов Бориса Гребенщикова эта версия песни пропала. Второй редкостью позиционируется культовая композиция «Рок-н-ролл мёртв» с альбома «Радио Африка». На диске она представлена без радиошумов, связывающих воедино композиции с пластинки. Также на сборник попали композиции «Сестра», «2-12-85-06», «Аделаида», «Сидя на красивом холме», «Человек из Кемерова» и другие. Издатель отмечает, что все песни «самиздатовского периода» группы «Аквариума» были тщательно отреставрированы. Эту процедуру выполнил известный звукорежиссёр Евгений Гапеев.

Tracklist:

01 - Поезд в Огне (1988)
02 - Стаканы (2006)
03 - Сестра (1986)
04 - Человек Из Кемерова (2003)
05 - 10 Стрел (1981)
06 - Электрический Пес (1981)
07 - 2 12 85 06 (1985)
08 - Козлодоев (1981)
09 - Мама, Я Не Могу Больше Пить (2006)
10 - Рок-н-ролл Мертв (1983)
11 - Аделаида (1987)
12 - Сидя на Красивом Холме (1984)
13 - Никита Рязанский (1992)
14 - Не Пей Вина Гертруда (1994)
15 - Гарсон Номер Два (1995)
16 - Древнерусская Тоска (1996)
17 - Бурлак (1992)
18 - Пришел Пить Воду (2014)
19 - Северный Цвет (2002)
20 - Серебро Господа Моего (1987)
21 - Город (1986)

Compiled by Alexey Ipatovtsev & Boris Grebenshchikov.
Remastered by Yevgeniy Gapeev.

Analyzed: Аквариум / Борис Гребенщиков / GreÅtest hits
––––––––––––––––––––––––––––––––––––––––

DR Peak RMS Duration Track
––––––––––––––––––––––––––––––––––––––––
DR8 -0.10 dB -10.24 dB 3:59 01-ПОЕЗД В ОГНЕ ­ ранее не издавалась
DR9 -0.99 dB -11.18 dB 2:08 02-СТАКАНЫ – «Беспечный Русский Бродяга»
DR10 -0.20 dB -10.95 dB 4:20 03-СЕСТРА – видеосингл
DR10 -0.10 dB -12.28 dB 3:45 04-ЧЕЛОВЕК ИЗ КЕМЕРОВА – «Песни Рыбака»
DR10 -0.10 dB -12.00 dB 2:19 05-10 СТРЕЛ – «Акустика»
DR9 -0.10 dB -12.08 dB 3:45 06-ЭЛЕКТРИЧЕСКИЙ ПЕС – «Синий Альбом»
DR8 -0.10 dB -10.79 dB 5:39 07-212 85 06 – «Дети Декабря»
DR12 -0.10 dB -15.14 dB 2:27 08-КОЗЛОДОЕВ – «Треугольник»
DR9 -0.08 dB -11.25 dB 2:58 09-МАМА Я НЕ МОГУ БОЛЬШЕ ПИТЬ – «Беспечный Русский Бродяга»
DR8 0.00 dB -9.28 dB 5:30 10-РОК Н РОЛЛ МЕРТВ – «Радио Африка»
DR9 -0.10 dB -12.17 dB 3:00 11-АДЕЛАИДА – «Равноденствие»
DR11 -0.10 dB -13.69 dB 1:43 12-СИДЯ НА КРАСИВОМ ХОЛМЕ – «День Серебра»
DR9 -0.20 dB -10.27 dB 2:39 13-НИКИТА РЯЗАНСКИЙ/Nikita Of Ryazan – «Русский Альбом»
DR9 -0.10 dB -10.91 dB 4:25 14-НЕ ПЕЙ ВИНА ГЕРТРУДА – «Кострома Mon Amour»
DR10 -0.10 dB -11.05 dB 4:12 15-ГАРСОН НОМЕР ДВА/ – «Навигатор»
DR7 -0.10 dB -9.72 dB 4:05 16-ДРЕВНЕРУССКАЯ ТОСКА – «Снежный Лев»
DR8 -0.10 dB -8.52 dB 4:02 17-БУРЛАК – «Русский Альбом»
DR8 -0.10 dB -12.19 dB 3:47 18-ПРИШЕЛ ПИТЬ ВОДУ – «Соль»
DR10 -0.20 dB -11.54 dB 6:12 19-СЕВЕРНЫЙ ЦВЕТ – «Сестра Хаос»
DR10 -0.19 dB -13.23 dB 3:32 20-СЕРЕБРО ГОСПОДА МОЕГО – из фильма «Рок»
DR10 -0.10 dB -12.92 dB 2:34 21-ГОРОД – «Десять Стрел»
––––––––––––––––––––––––––––––––––––––––

Number of tracks: 21
Official DR value: DR9

Samplerate: 48000 Hz
Channels: 2
Bits per sample: 24
Bitrate: 1609 kbps
Codec: FLAC
================================================================================


Thanks to the Original customer!