Aretha Franklin - Let Me In Your Life (1974/2012) [Official Digital Download 24bit/192kHz]

Posted By: HDV
Aretha Franklin - Let Me In Your Life (1974/2012) [Official Digital Download 24bit/192kHz]

Aretha Franklin - Let Me In Your Life (1974/2012)
FLAC (tracks) 24 bit/192 kHz | Time - 43:24 minutes | 1,68 GB
Studio Master, Official Digital Download | Artwork: Front cover

Regarded as one of Aretha’s best albums off Atlantic Records, "Let Me In Your Life" reached #1 on Billboard’s Top R&B charts. Teaming up with legendary Atlantic producer Jerry Wexler, the queen of soul delivered her trademark vocal chops. The recording would yield three highly successful singles, “Until You Come Back To Me (That’s What I’m Gonna Do)”, “Ain’t Nothing Like The Real Thing” and “I’m In Love”. The track, “Ain’t Nothing Like The Real Thing” would win Aretha a GRAMMY for Best Female R&B Vocal Performance.

A nice, if at times overbearing, mid-'70s Franklin set. She was still singing with the stunning delivery, amazing timing, and majestic soul that highlighted her late-'60s releases. Her version of "Until You Come Back to Me (That's What I'm Gonna Do)" is the only one that might be superior to Stevie Wonder's great original, while "I'm in Love" and the title cut are prime Franklin.

Tracklist:

01 - Let Me In Your Life
02 - Every Natural Thing
03 - Ain't Nothing Like The Real Thing
04 - I'm In Love
05 - Until You Come Back To Me (That's What I'm Gonna Do)
06 - The Masquerade Is Over
07 - With Pen In Hand
08 - Oh Baby
09 - Eight Days On The Road
10 - If You Don't Think
11 - A Song For You

Analyzed: Aretha Franklin / Let Me In Your Life
––––––––––––––––––––––––––––––––––––––––

DR Peak RMS Duration Track
––––––––––––––––––––––––––––––––––––––––
DR12 -2.15 dB -16.36 dB 3:29 01-Let Me In Your Life
DR12 -2.60 dB -16.34 dB 2:38 02-Every Natural Thing
DR13 -6.38 dB -22.22 dB 3:50 03-Ain't Nothing Like The Real Thing
DR12 -6.63 dB -22.19 dB 2:52 04-I'm In Love
DR11 -1.47 dB -16.11 dB 3:28 05-Until You Come Back To Me (That's What I'm Gonna Do)
DR14 -5.87 dB -24.58 dB 4:31 06-The Masquerade Is Over
DR12 -4.66 dB -20.58 dB 5:07 07-With Pen In Hand
DR11 -0.06 dB -15.80 dB 5:00 08-Oh Baby
DR12 -0.84 dB -16.71 dB 3:04 09-Eight Days On The Road
DR12 -4.22 dB -19.79 dB 3:53 10-If You Don't Think
DR12 -2.31 dB -18.39 dB 5:33 11-A Song For You
––––––––––––––––––––––––––––––––––––––––

Number of tracks: 11
Official DR value: DR12

Samplerate: 192000 Hz
Channels: 2
Bits per sample: 24
Bitrate: 5255 kbps
Codec: FLAC
================================================================================


Thanks to the Original customer!