Subcategories

Art Pepper - Meets The Rhythm Section (1957) [Analogue Productions 2002] PS3 ISO + Hi-Res FLAC {RE-UP}

Posted By: HDAtall
Art Pepper - Meets The Rhythm Section (1957) [Analogue Productions 2002] PS3 ISO + Hi-Res FLAC {RE-UP}

Art Pepper - Meets The Rhythm Section (1957) [APO Remaster 2002]
PS3 Rip | SACD ISO | DSD64 2.0 > 1-bit/2.8224 MHz | 50:28 minutes | Scans included | 1,53 GB
or FLAC(converted with foobar2000 to tracks) 24bit/88,2 kHz | Scans included | 1013 MB
analogue productions # CAPJ 7532 SA

By the time of this, Art Pepper's tenth recording as a leader, he was making his individual voice on the alto saxophone leave the cozy confines of his heroes Charlie Parker and Lee Konitz. Joining the Miles Davis rhythm section of pianist Red Garland, bassist Paul Chambers, and drummer Philly Joe Jones made the transformation all that more illuminating. It's a classic east meets west, cool plus hot but never lukewarm combination that provides many bright moments for the quartet during this exceptional date from that great year in music, 1957. A bit of a flip, loosened but precise interpretation of the melody on "You'd Be So Nice to Come Home To" gets the ball rolling, followed by a "Bags Groove" parallel with "Red Pepper Blues," and a delicate, atypical treatment of "Imagination." A compositional collaboration of Pepper and Chambers on the quick "Waltz Me Blues" and hard-edged, running-as-fast-as-he-can take of "Straight Life" really sets the gears whirring. Philly Joe Jones is a great bop drummer, no doubt, one of the all-time greats with Kenny Clarke and Max Roach. His crisp Latin-to-swing pace for "Tin Tin Deo" deserves notice, masterful in its creation and seamlessness. Pepper makes a typical "Star Eyes" brighter, and he goes into a lower octave tone, more like a tenor, for "Birks Works" and the bonus track "The Man I Love." It's clear he has heard his share of Stan Getz in this era. Though Art Pepper played with many a potent trio, this one inspires him to the maximum, and certainly makes for one of his most substantive recordings after his initial incarcerations, and before his second major slip into the deep abyss of drug addiction.

Tracklist:

01. You'd Be So Nice To Come Home To
02. Red Pepper Blues
03. Imagination
04. Waltz Me Blues
05. Straight Life
06. Jazz Me Blues
07. Tin Tin Deo
08. Star Eyes
09. Birks' Works
10. The Man I Love [Bonus Track]

foobar2000 1.3.3 / Dynamic Range Meter 1.1.1

––––––––––––––––––––––––––––––––––––––––
Analyzed: Art Pepper, Red Garland, Paul Chambers, Philly Joe Jones / Art Pepper Meets The Rhythm Section
––––––––––––––––––––––––––––––––––––––––

DR Peak RMS Duration Track
––––––––––––––––––––––––––––––––––––––––
DR13 -6.92 dB -23.90 dB 4:14 01-You'd Be So Nice To Come Home To
DR15 -5.19 dB -23.66 dB 4:50 02-Red Pepper Blues
DR15 -6.73 dB -24.85 dB 5:52 03-Imagination
DR15 -4.39 dB -24.59 dB 2:56 04-Waltz Me Blues
DR14 -5.05 dB -22.96 dB 3:59 05-Straight Life
DR14 -8.40 dB -25.87 dB 4:48 06-Jazz Me Blues
DR14 -7.96 dB -26.97 dB 7:43 07-Tin Tin Deo
DR15 -5.29 dB -25.60 dB 5:13 08-Star Eyes
DR14 -5.48 dB -24.49 dB 4:18 09-Birks' Works
DR13 -7.61 dB -23.53 dB 6:36 10-The Man I Love
––––––––––––––––––––––––––––––––––––––––

Number of tracks: 10
Official DR value: DR14

Samplerate: 2822400 Hz / PCM Samplerate: 88200 Hz
Channels: 2
Bits per sample: 24
Bitrate: 5645 kbps
Codec: DSD64


Uncompressed SACD ISO size > 2,03 GB
Thanks to ashotik22!
SACD ISO 1
SACD ISO 2

FLAC 1
FLAC 2